<?xml version="1.0" standalone="no"?>
<!DOCTYPE svg PUBLIC "-//W3C//DTD SVG 1.1//EN" "http://www.w3.org/Graphics/SVG/1.1/DTD/svg11.dtd" >
<svg xmlns="http://www.w3.org/2000/svg">
<metadata>
This is a custom SVG webfont generated by Font Squirrel.
Copyright   : Copyright c 2007 by GreyscaleNet All rights reserved
Designer    : Greyscale
Foundry     : GreyscaleNet
</metadata>
<defs>
<font id="webfontYQ22BKqQ" horiz-adv-x="985" >
<font-face units-per-em="2048" ascent="1536" descent="-512" />
<missing-glyph horiz-adv-x="552" />
<glyph unicode=" "  horiz-adv-x="552" />
<glyph unicode="&#x09;" horiz-adv-x="552" />
<glyph unicode="&#xa0;" horiz-adv-x="552" />
<glyph unicode="!" horiz-adv-x="307" d="M61 80q0 35 25 56.5t59 21.5q35 0 56.5 -21.5t21.5 -56.5q0 -37 -21.5 -58.5t-56.5 -21.5t-59.5 21.5t-24.5 58.5zM61 487v951q0 37 25 58.5t59 21.5q35 0 56.5 -21.5t21.5 -58.5v-951q0 -35 -21.5 -58t-56.5 -23t-59.5 23t-24.5 58z" />
<glyph unicode="&#x22;" horiz-adv-x="329" d="M23 1313v143q0 29 20 46.5t45 17.5q29 0 49.5 -17.5t20.5 -46.5v-143q0 -31 -20.5 -48.5t-49.5 -17.5q-25 0 -45 17.5t-20 48.5zM158 1313v143q0 29 20.5 46.5t44.5 17.5q29 0 48.5 -17.5t19.5 -46.5v-143q0 -31 -19.5 -48.5t-48.5 -17.5q-25 0 -45 17.5t-20 48.5z" />
<glyph unicode="#" horiz-adv-x="952" d="M68 573q0 35 20.5 56.5t54.5 21.5h43v213h-43q-35 0 -55 23.5t-20 56.5q0 35 20.5 56.5t54.5 21.5h43v49q0 35 21.5 59.5t54.5 24.5q35 0 58.5 -24.5t23.5 -59.5v-49h236v49q0 35 22.5 59.5t56.5 24.5q35 0 57.5 -24.5t22.5 -59.5v-49h37q37 0 58.5 -21.5t21.5 -56.5 q0 -33 -21.5 -56.5t-58.5 -23.5h-37v-213h37q37 0 58.5 -21.5t21.5 -56.5q0 -39 -21.5 -61.5t-58.5 -22.5h-37v-51q0 -27 -22.5 -51.5t-57.5 -24.5t-57 25t-22 51v51h-236v-51q0 -27 -23.5 -51.5t-58.5 -24.5q-33 0 -54.5 25t-21.5 51v51h-43q-35 0 -55 22.5t-20 61.5z M344 651h236v213h-236v-213z" />
<glyph unicode="$" horiz-adv-x="911" d="M55 264q0 35 21.5 58.5t58.5 23.5h244v397l-37 32l-33 28q-16 14 -30 28l-111 99q-35 35 -57.5 82t-22.5 102q0 47 19.5 93t54.5 85q37 35 84 54.5t96 19.5h37v70q0 37 21.5 58.5t54.5 21.5q35 0 56 -21.5t21 -58.5v-70h207q31 0 55.5 -25.5t24.5 -60.5 q0 -33 -24.5 -55.5t-55.5 -22.5h-207v-385q27 -27 58 -47q14 -10 31 -20l139 -125l2 -2q76 -82 76 -185q0 -53 -19.5 -99t-54.5 -77q-78 -74 -176 -74h-56v-106q0 -35 -21.5 -55.5t-55.5 -20.5q-33 0 -54.5 20.5t-21.5 55.5v106h-244q-37 0 -58.5 23.5t-21.5 52.5zM248 1114 q0 -23 8 -38t23 -29l-3 4q4 -4 19 -18l32 -28q17 -15 31 -30l21 -21v248h-37q-35 0 -63 -28v2q-31 -27 -31 -62zM379 887l49 24l-17 15q-7 6 -14 10q-8 6 -12 10v2l-6 6v-67zM483 649q4 -4 9.5 -7t9.5 -7t6 -8l6 -6q2 -2 18 -15v68zM532 346h56q39 0 59 19q12 18 21.5 35.5 t9.5 37.5q0 35 -25 70l-23 17q-15 11 -33 26l-35 29q-17 14 -30 26v-260z" />
<glyph unicode="&#x26;" horiz-adv-x="1173" d="M55 442q0 98 44 187.5t122 152.5l113 95q-27 33 -52.5 67.5t-52.5 67.5q-29 43 -46 90t-17 100q0 66 24.5 124t67.5 101t101.5 68t123.5 25q66 0 124.5 -25t101.5 -68t68.5 -101t25.5 -124q0 -63 -26.5 -126.5t-80.5 -108.5l-71 -61l-72 -58l150 -191l151 -192l60 76 l63 75q23 23 54.5 29t53.5 -16q27 -18 31 -52t-12 -61l-148 -182l73 -98l73 -99h-2q18 -25 16 -57.5t-31 -52.5l2 2q-29 -25 -59.5 -21t-52.5 33l-127 170q-4 -4 -12.5 -16.5t-12.5 -16.5h2q-63 -80 -152 -124t-190 -44q-90 0 -167.5 35t-135 94.5t-91.5 137t-34 165.5z M217 442q0 -55 21.5 -104t57.5 -86t84 -58.5t103 -21.5q63 0 118.5 26.5t96.5 80.5l50 57l-159 204l-159 205l-57 -46l-56 -46q-47 -37 -73.5 -91t-26.5 -120zM328 1202q0 -53 32 -94l99 -131l68 54l69 56q23 25 36 52.5t13 62.5q0 63 -47 109.5t-115 46.5q-63 0 -109 -46.5 t-46 -109.5z" />
<glyph unicode="'" horiz-adv-x="239" d="M55 1313v143q0 29 20.5 46.5t45.5 17.5q29 0 49 -17.5t20 -46.5v-143q0 -31 -20 -48.5t-49 -17.5q-25 0 -45.5 17.5t-20.5 48.5z" />
<glyph unicode="(" horiz-adv-x="575" d="M94 354v809q0 78 29 145.5t80 119t118.5 80t145.5 28.5q35 0 57.5 -21.5t22.5 -58.5q0 -35 -22.5 -56.5t-57.5 -21.5q-43 0 -82 -17.5t-68.5 -46t-46 -68.5t-16.5 -83v-809q0 -43 16.5 -83t46 -68.5t68.5 -46t82 -17.5q35 0 57.5 -21.5t22.5 -58.5q0 -35 -22.5 -56 t-57.5 -21q-78 0 -145.5 28.5t-118.5 78.5t-80 118.5t-29 146.5z" />
<glyph unicode=")" horiz-adv-x="579" d="M10 59q0 37 21.5 58.5t58.5 21.5q43 0 81 17.5t67.5 46t46 68.5t16.5 83v809q0 43 -16.5 83t-46 68.5t-67.5 46t-81 17.5q-37 0 -58.5 21.5t-21.5 56.5q0 37 21.5 58.5t58.5 21.5q78 0 145.5 -28.5t119 -80t80 -119t28.5 -145.5v-809q0 -78 -28.5 -146.5t-80 -118.5 t-119 -78.5t-145.5 -28.5q-37 0 -58.5 21t-21.5 56z" />
<glyph unicode="*" horiz-adv-x="712" d="M64.5 1122.5q5.5 26.5 31.5 46.5l97 60q-25 16 -46.5 27.5t-46.5 27.5q-29 18 -35 47t15 58l-4 -5q14 29 40.5 39.5t61.5 -12.5l-2 2q16 -10 26.5 -15t19.5 -10.5l19 -11.5l25 -16v76q0 37 23.5 58.5t52.5 21.5t52.5 -21.5t23.5 -58.5v-76l42 25.5t40 25.5q35 18 64.5 9 t41.5 -36q18 -29 12 -56.5t-34 -43.5l-92 -57q27 -16 45 -25.5t45 -25.5q29 -23 34 -51.5t-10 -53.5q-14 -35 -42.5 -42t-63.5 13l-82 58v-86q0 -31 -23.5 -50.5t-52.5 -19.5t-52.5 19.5t-23.5 50.5v84l-45 -28l-45 -28l2 2q-33 -20 -59.5 -14t-40.5 41q-19 25 -13.5 51.5z " />
<glyph unicode="+" horiz-adv-x="927" d="M10 758q0 37 22.5 58.5t57.5 21.5h270v270q0 37 23 58.5t57 21.5q37 0 58.5 -21.5t21.5 -58.5v-270h266q37 0 60.5 -21.5t23.5 -58.5q0 -35 -23.5 -56.5t-60.5 -21.5h-266v-270q0 -35 -21.5 -57.5t-58.5 -22.5q-35 0 -57.5 22.5t-22.5 57.5v270h-270q-35 0 -57.5 21.5 t-22.5 56.5z" />
<glyph unicode="," horiz-adv-x="309" d="M82 -88v180q0 31 20.5 48.5t44.5 17.5q29 0 49.5 -17.5t20.5 -48.5v-180q0 -31 -20.5 -48.5t-49.5 -17.5q-25 0 -45 17.5t-20 48.5z" />
<glyph unicode="-" horiz-adv-x="866" d="M76 758q0 37 24.5 58.5t59.5 21.5h510q29 0 53.5 -21.5t24.5 -58.5q0 -35 -25 -56.5t-53 -21.5h-510q-35 0 -59.5 21.5t-24.5 56.5z" />
<glyph unicode="." horiz-adv-x="337" d="M70 72q0 37 24.5 61.5t63.5 24.5q37 0 62.5 -24.5t25.5 -61.5q0 -39 -25.5 -63.5t-62.5 -24.5q-39 0 -63.5 24.5t-24.5 63.5z" />
<glyph unicode="/" horiz-adv-x="925" d="M27.5 53q-11.5 33 5.5 62v-2l350 680l348 680q16 35 47 42t60 -10q35 -16 43 -43.5t-2 -52.5l-703 -1368q-16 -29 -47 -39t-61 2q-29 16 -40.5 49z" />
<glyph unicode="0" horiz-adv-x="1351" d="M104 549v418q0 115 44.5 215t119 175t175 118t212.5 43q115 0 215.5 -43t175 -118t117.5 -175.5t43 -214.5v-418q0 -115 -43 -215.5t-117.5 -174t-175 -116.5t-215.5 -43q-113 0 -213 43t-174.5 116.5t-119 174t-44.5 215.5zM266 549q0 -80 31 -151.5t84 -125t123.5 -84 t150.5 -30.5q61 0 115.5 19.5t103.5 51.5l-266 482l-268 485q-35 -47 -54.5 -106.5t-19.5 -122.5v-418zM465 1307l134 -245l128 -235l129 -235l135 -246q27 45 41.5 96.5t14.5 106.5v418q0 82 -31 153.5t-84 124.5t-125 84t-152 31q-106 0 -190 -53z" />
<glyph unicode="1" horiz-adv-x="423" d="M-23 1438q0 37 24 58.5t58 21.5h142q35 0 56.5 -21.5t21.5 -58.5v-1358q0 -37 -21.5 -58.5t-56.5 -21.5q-37 0 -58.5 21.5t-21.5 58.5v1280h-62q-35 0 -58.5 21.5t-23.5 56.5z" />
<glyph unicode="2" horiz-adv-x="1075" d="M43 41q-16 49 8 90l746 985v-2q29 37 28 90q0 63 -45 111h2q-45 45 -106 45h-551q-29 0 -53.5 21.5t-24.5 56.5q0 37 24.5 58.5t53.5 21.5h551q131 0 221 -93q43 -43 66.5 -99t23.5 -122q0 -100 -65 -188l-641 -858h637q35 0 58 -20.5t23 -57.5t-23.5 -58.5t-57.5 -21.5 h-801q-54 0 -74 41z" />
<glyph unicode="3" horiz-adv-x="1056" d="M-6 80q0 35 23.5 56.5t58.5 21.5h489q37 0 71 14t59.5 40t40 60.5t14.5 73.5v146q0 72 -47.5 123t-112.5 61h-389q-37 0 -58.5 23.5t-21.5 58.5q0 80 80 80h387q66 12 114 63t48 121v145q0 39 -14.5 74t-40 60.5t-59.5 40t-71 14.5h-489q-35 0 -58.5 24.5t-23.5 53.5 q0 37 23.5 60.5t58.5 23.5h489q70 0 133.5 -28t110.5 -76t74.5 -111.5t27.5 -135.5v-145q0 -78 -34.5 -147.5t-88.5 -116.5q49 -47 86 -119t37 -147v-146q0 -72 -27.5 -135.5t-74.5 -110.5t-110.5 -73.5t-133.5 -26.5h-489q-35 0 -58.5 21.5t-23.5 58.5z" />
<glyph unicode="4" horiz-adv-x="1138" d="M-4 643q0 53 24.5 107.5t65.5 101.5l612 639q27 27 60 27h86q35 0 56.5 -21.5t21.5 -58.5v-889h12q35 0 58.5 -23.5t23.5 -58.5q0 -29 -23.5 -53.5t-58.5 -24.5h-12v-309q0 -37 -21.5 -58.5t-56.5 -21.5q-37 0 -58.5 21.5t-21.5 58.5v309h-514q-51 0 -97.5 20.5t-81 54.5 t-55 80t-20.5 99zM156 643q0 -39 28.5 -66.5t65.5 -27.5h514q0 207 7 398.5t9 398.5l-286 -302l-287 -301v2q-23 -27 -37 -53t-14 -49zM780 1346v28l11 -14q-5 -8 -11 -14z" />
<glyph unicode="5" horiz-adv-x="1101" d="M55 1081v242q0 82 58 137q57 57 137 58h678q35 0 56.5 -21.5t21.5 -58.5q0 -35 -21.5 -56.5t-56.5 -21.5h-678q-4 0 -11.5 -3t-9.5 -5q-12 -18 -12 -29v-242q0 -61 43 -104q43 -45 102 -45h279q76 0 144.5 -29t120.5 -80t82 -118.5t30 -145.5v-186q0 -78 -30 -145.5 t-82 -119t-120.5 -80t-144.5 -28.5h-504q-29 0 -54.5 21.5t-25.5 58.5q0 35 26 56.5t54 21.5h504q43 0 83 17.5t68.5 46t46 68.5t17.5 83v186q0 43 -17.5 81t-46 67.5t-68.5 46t-83 16.5h-279l-6 4q-66 2 -117 23.5t-94 60.5q-90 96 -90 223z" />
<glyph unicode="6" horiz-adv-x="1275" d="M123 373v770q0 78 29.5 146.5t81 118.5t120 80t146.5 30h225q78 0 146.5 -30t119.5 -80t81 -118.5t30 -146.5q0 -35 -24.5 -57.5t-59.5 -22.5t-56.5 22.5t-21.5 57.5q0 45 -17.5 84t-46 68.5t-68.5 47t-83 17.5h-225q-45 0 -84 -17.5t-69 -47t-46 -68.5t-16 -84v-182 q90 66 215 65h260q78 0 146.5 -28.5t118.5 -80t80 -119t30 -145.5v-280q0 -78 -30 -145.5t-80 -119t-118.5 -80t-146.5 -28.5h-260q-78 0 -146.5 28.5t-120 80t-81 119t-29.5 145.5zM285 373q0 -43 16 -83t46 -68.5t69 -46t84 -17.5h260q43 0 82 17.5t68.5 46t46 68.5 t16.5 83v280q0 43 -16.5 83t-46 69t-68.5 46t-82 17h-260q-45 0 -84 -17t-69 -46t-46 -69t-16 -83v-280z" />
<glyph unicode="7" horiz-adv-x="991" d="M-4 1438q0 37 23.5 58.5t54.5 21.5h588q113 0 188 -80h-2q78 -78 78 -187q0 -27 -3 -47t-10 -45l-471 -1112v4q-10 -37 -42.5 -48t-61.5 1q-66 29 -43 105l465 1105q6 14 6 37q0 43 -29 76q-33 29 -75 29l-588 4q-31 0 -54.5 21.5t-23.5 56.5z" />
<glyph unicode="8" horiz-adv-x="1245" d="M100 373v188q0 94 48.5 177t119.5 134q-88 88 -88 218v110q0 66 24.5 123t67.5 100t101.5 69t124.5 26h213q66 0 123 -26t100 -69t68.5 -100t25.5 -123v-110q0 -127 -90 -218q78 -51 124 -133t46 -178v-188q0 -78 -29.5 -145.5t-80 -119t-119 -80t-146.5 -28.5h-262 q-78 0 -145.5 28.5t-117.5 80t-79 119t-29 145.5zM260 373q0 -43 16.5 -83t46 -68.5t67.5 -46t81 -17.5h262q43 0 83 17.5t68.5 46t46 68.5t17.5 83v188q0 43 -17.5 82t-46 67.5t-68.5 46t-83 17.5h-262q-43 0 -81 -17.5t-67.5 -46t-46 -67.5t-16.5 -82v-188zM340 1090 q0 -63 46 -110.5t112 -47.5h213q66 0 112.5 47t46.5 111v110q0 66 -47 113t-112 47h-213q-66 0 -112 -47t-46 -113v-110z" />
<glyph unicode="9" horiz-adv-x="1273" d="M104 948v195q0 78 29 146.5t79 118.5t118.5 80t146.5 30h262q78 0 145.5 -30t119 -80t80 -118.5t28.5 -146.5v-770q0 -78 -28.5 -145.5t-80 -119t-119 -80t-145.5 -28.5h-229q-78 0 -146.5 28.5t-118.5 80t-79 119t-29 145.5q0 37 22.5 58.5t59.5 21.5q35 0 56.5 -21.5 t21.5 -58.5q0 -43 16.5 -83t46 -68.5t68.5 -46t82 -17.5h229q43 0 81 17.5t68 46t46 68.5t16 83v268q-92 -63 -211 -63h-262q-78 0 -146.5 28.5t-118.5 79.5t-79 117.5t-29 144.5zM266 948q0 -43 16.5 -81t45 -67.5t67.5 -46t82 -16.5h262q43 0 81 16.5t68 46t46 67.5t16 81 v195q0 45 -16 84t-46 68.5t-68 47t-81 17.5h-262q-43 0 -82 -17.5t-67.5 -47t-45 -68.5t-16.5 -84v-195z" />
<glyph unicode=":" horiz-adv-x="382" d="M106 420q0 35 22 56.5t56 21.5q35 0 58.5 -21.5t23.5 -56.5t-23.5 -58.5t-58.5 -23.5t-56.5 23.5t-21.5 58.5zM106 758q0 37 22 58.5t56 21.5q35 0 58.5 -21.5t23.5 -58.5q0 -35 -23.5 -56.5t-58.5 -21.5t-56.5 21.5t-21.5 56.5z" />
<glyph unicode=";" horiz-adv-x="380" d="M106 758q0 37 22 58.5t56 21.5q35 0 59.5 -21.5t24.5 -58.5q0 -35 -24.5 -56.5t-59.5 -21.5t-56.5 21.5t-21.5 56.5zM119 291v201q0 29 20.5 47t44.5 18q29 0 49.5 -18.5t20.5 -46.5v-201q0 -31 -20.5 -48.5t-49.5 -17.5q-25 0 -45 17.5t-20 48.5z" />
<glyph unicode="&#x3c;" horiz-adv-x="679" d="M-10 758q0 35 28 61l410 340q27 18 59.5 15t53.5 -29h-2q27 -29 18.5 -60.5t-33.5 -48.5l2 2l-85 -71l-79 -69l-79 -69l-86 -71l164 -140l165 -139q27 -27 33 -54.5t-18 -55.5q-20 -25 -52 -29t-61 18l-206 170l-206 170q-26 33 -26 60z" />
<glyph unicode="=" horiz-adv-x="980" d="M127 758q0 37 23.5 58.5t58.5 21.5h536q29 0 54.5 -21.5t25.5 -58.5q0 -35 -25.5 -56.5t-54.5 -21.5h-536q-35 0 -58.5 21.5t-23.5 56.5zM127 928q0 37 23.5 58.5t58.5 21.5h536q29 0 54.5 -21.5t25.5 -58.5q0 -35 -25.5 -57.5t-54.5 -22.5h-536q-35 0 -58.5 22.5 t-23.5 57.5z" />
<glyph unicode="&#x3e;" horiz-adv-x="677" d="M101 423q3 30 30 56l330 279l-165 139l-165 141l2 -2q-27 20 -32 52t18 59q25 25 54.5 27t55.5 -15l414 -342q10 -10 17.5 -26.5t7.5 -32.5q0 -29 -21 -58l-416 -342q-25 -23 -56.5 -18.5t-55.5 29.5q-21 24 -18 54z" />
<glyph unicode="?" horiz-adv-x="847" d="M-6 1438q0 37 21.5 58.5t56.5 21.5h383q78 0 146.5 -30t118.5 -80t79.5 -118.5t29.5 -146.5t-29.5 -145.5t-79.5 -119t-119 -80t-146 -28.5q-57 0 -107 -43l2 4q-20 -25 -32.5 -52.5t-12.5 -60.5v-118q0 -35 -24.5 -58.5t-53.5 -23.5q-37 0 -60.5 23.5t-23.5 58.5v118 q0 61 23.5 120t66.5 102q92 92 222 92q43 0 83 16.5t68.5 46t46 67.5t17.5 81q0 45 -17.5 84t-46 68.5t-68.5 47t-83 17.5h-383q-35 0 -56.5 21.5t-21.5 56.5zM143 80q0 35 23.5 56.5t60.5 21.5q29 0 53.5 -21.5t24.5 -56.5q0 -37 -24.5 -58.5t-53.5 -21.5q-37 0 -60.5 21.5 t-23.5 58.5z" />
<glyph unicode="@" horiz-adv-x="1685" d="M123 424v663q0 113 43 213.5t116.5 175t174 117.5t215.5 43h311q111 0 211 -42t178 -119q160 -164 160 -388v-747q0 -29 -21.5 -53.5t-56.5 -24.5t-59.5 24.5t-24.5 53.5v747q0 76 -28.5 147t-84.5 128h3q-113 113 -277 113h-311q-82 0 -154 -31t-124 -83t-82.5 -123 t-30.5 -151v-663q0 -35 -21.5 -58.5t-58.5 -23.5t-57.5 23.5t-20.5 58.5zM123 424h61q0 -20 17 -21q16 0 16 21h64q0 -80 30.5 -151.5t82.5 -125t124 -84t154 -30.5l299 2q37 0 63.5 25.5t26.5 62.5v125h-367q-102 0 -180 71q-72 78 -72 181v172q0 51 19.5 95t54.5 78 t80 53.5t98 19.5h281q27 0 45 -2.5t41 -10.5v107q0 29 -27 59q-25 27 -63 27h-299v-45q0 -35 -22.5 -57.5t-57.5 -22.5q-31 0 -55.5 22.5t-24.5 57.5v125q0 35 24.5 58.5t55.5 23.5h379q102 0 176 -74v2q41 -35 57.5 -82t16.5 -94v-889q0 -53 -18.5 -98t-52.5 -79t-80 -53.5 t-99 -19.5l-299 -2q-115 0 -215.5 43t-174 119t-116.5 176t-43 215zM602 500q0 -33 29 -66l-4 2q33 -27 67 -26h363q4 0 4 4v262q-2 35 -26.5 57.5t-59.5 22.5h-281q-39 0 -65.5 -23.5t-26.5 -60.5v-172z" />
<glyph unicode="A" horiz-adv-x="1413" d="M63 109l238 689l238 691q25 57 75 57h154q35 0 52.5 -15t25.5 -44l-2 2l483 -1395q2 -8 2 -17q0 -18 -9 -35q-13 -26 -48 -38q-13 -5 -27 -5l-35 9q-31 16 -41 51v-2l-75 214l-76 216h-651l-74 -215l-74 -215q-16 -29 -46 -46q-19 -11 -38 -11q-11 0 -22 4h2 q-37 12 -49 43q-7 17 -7 34q0 14 4 30v-2zM422 651h541l-127 366l-127 365h-33l-126 -363z" />
<glyph unicode="B" horiz-adv-x="1331" d="M133 80v1382q0 35 23.5 59.5t60.5 24.5h483q80 0 149 -29.5t121 -81t81.5 -121t29.5 -147.5v-24q0 -72 -26.5 -134.5t-67.5 -113.5q102 -45 167 -135t65 -213v-166q0 -80 -30 -149.5t-82 -121t-120.5 -81t-148.5 -29.5h-621q-37 0 -60.5 21.5t-23.5 58.5zM297 164h541 q45 0 85 17.5t69.5 47t47 68.5t17.5 84v166q0 45 -17.5 85t-47 69.5t-69.5 47t-85 17.5h-541v-602zM297 926h403q43 0 83 17.5t69 47t46 68.5t17 84v24q0 43 -17 83t-46 69t-69 46t-83 17h-403v-456z" />
<glyph unicode="C" horiz-adv-x="1024" d="M90 559v426q0 117 44 218.5t120 178t178.5 120.5t218.5 44h267q35 0 58 -24.5t23 -59.5q0 -37 -23.5 -58.5t-57.5 -21.5h-267q-82 0 -154.5 -31.5t-126 -85t-85 -126t-31.5 -154.5v-426q0 -166 117 -278q53 -59 124.5 -88t155.5 -29h269q37 0 58 -24.5t21 -59.5 q0 -37 -21.5 -58.5t-57.5 -21.5h-269q-113 0 -215 42t-180 120q-80 82 -123 184t-43 213z" />
<glyph unicode="D" horiz-adv-x="1318" d="M133 80v1382q0 35 21.5 59.5t58.5 24.5h418q117 0 219 -44t179 -120.5t121 -178t44 -218.5v-426q0 -115 -44 -217t-121 -178t-179 -120t-219 -44h-418q-37 0 -58.5 21.5t-21.5 58.5zM293 164h338q82 0 155.5 30.5t127 85t85 126t31.5 153.5v426q0 78 -30.5 149.5 t-90.5 129.5q-55 59 -126.5 88.5t-151.5 29.5h-338v-1218z" />
<glyph unicode="E" horiz-adv-x="1134" d="M131 80v1382q0 35 22.5 59.5t57.5 24.5h829q35 0 58.5 -24.5t23.5 -59.5q0 -37 -23.5 -58.5t-58.5 -21.5h-747v-458h655q35 0 58.5 -23.5t23.5 -58.5t-23.5 -58.5t-58.5 -23.5h-655v-596h747q35 0 58.5 -24.5t23.5 -59.5q0 -37 -23.5 -58.5t-58.5 -21.5h-829 q-35 0 -57.5 21.5t-22.5 58.5z" />
<glyph unicode="F" horiz-adv-x="1126" d="M131 80v1382q0 35 24.5 59.5t55.5 24.5h831q37 0 58.5 -24.5t21.5 -59.5q0 -37 -21.5 -58.5t-58.5 -21.5h-745v-458h653q37 0 58.5 -23.5t21.5 -58.5t-21.5 -58.5t-58.5 -23.5h-653v-680q0 -37 -25.5 -58.5t-60.5 -21.5q-31 0 -55.5 21.5t-24.5 58.5z" />
<glyph unicode="G" horiz-adv-x="1333" d="M100 559v426q0 117 44 218.5t121 178t179.5 120.5t217.5 44q162 0 292.5 -82t204.5 -225v2q16 -29 7 -61.5t-40 -49.5q-20 -11 -39 -11q-12 0 -24 4q-31 11 -47 42q-55 104 -147.5 160.5t-206.5 56.5q-82 0 -154 -31.5t-126 -85t-85 -126t-31 -154.5v-426 q0 -82 31 -153.5t85 -126t126 -85t154 -30.5t154.5 30.5t125.5 85t85 126t32 153.5v133h-152q-37 0 -58.5 21.5t-21.5 58.5q0 35 21.5 59.5t58.5 24.5h232q31 0 61 -27q23 -25 23 -57v-213q0 -115 -44 -217t-121 -178t-178.5 -120t-217.5 -44q-115 0 -217.5 44t-179.5 120 t-121 178t-44 217z" />
<glyph unicode="H" horiz-adv-x="1421" d="M133 80v1382q0 35 23.5 59.5t58.5 24.5t58.5 -24.5t23.5 -59.5v-530h799v530q0 35 22.5 59.5t59.5 24.5t58 -24.5t21 -59.5v-1382q0 -37 -21.5 -58.5t-57.5 -21.5q-37 0 -59.5 21.5t-22.5 58.5v688h-799v-688q0 -37 -23.5 -58.5t-58.5 -21.5t-58.5 21.5t-23.5 58.5z" />
<glyph unicode="I" horiz-adv-x="438" d="M123 80v1382q0 35 23.5 59.5t58.5 24.5t58.5 -24.5t23.5 -59.5v-1382q0 -37 -23.5 -58.5t-58.5 -21.5t-58.5 21.5t-23.5 58.5z" />
<glyph unicode="J" horiz-adv-x="731" d="M-25 80q0 35 24 59.5t58 24.5q82 0 155 30.5t126 85t85 126t32 153.5v903q0 35 22.5 59.5t57.5 24.5q37 0 59 -24.5t22 -59.5v-903q0 -115 -44 -217t-119.5 -178t-177 -120t-218.5 -44q-35 0 -58.5 21.5t-23.5 58.5z" />
<glyph unicode="K" horiz-adv-x="1363" d="M133 80v1382q0 35 21.5 59.5t58.5 24.5t60.5 -24.5t23.5 -59.5v-538h248l542 596q27 25 59 25.5t58 -21.5q29 -27 29 -62q0 -27 -25 -53h2l-262 -288l-262 -287l258 -355l256 -356q16 -25 10 -56.5t-34 -52.5q-20 -16 -44 -15q-7 0 -15 1q-32 6 -58 33l-518 727h-244 v-680q0 -37 -23.5 -58.5t-60.5 -21.5t-58.5 21.5t-21.5 58.5z" />
<glyph unicode="L" horiz-adv-x="1114" d="M131 80v1382q0 35 23.5 59.5t60.5 24.5t58.5 -24.5t21.5 -59.5v-1298h731q35 0 59.5 -24.5t24.5 -59.5q0 -37 -24.5 -58.5t-59.5 -21.5h-811q-37 0 -60.5 21.5t-23.5 58.5z" />
<glyph unicode="M" horiz-adv-x="1646" d="M135 80v1382q0 35 21.5 59.5t58.5 24.5h119q23 0 39 -10t26 -27l215 -295l215 -296l188 294l187 295q27 39 74 39h115q35 0 58.5 -24.5t23.5 -59.5v-1382q0 -37 -24 -58.5t-58 -21.5q-35 0 -58.5 21.5t-23.5 58.5v1286l-206 -319l-206 -320q-12 -18 -29.5 -26.5 t-35.5 -8.5q-43 0 -68 33l-234 322l-233 321v-1288q0 -37 -24.5 -58.5t-59.5 -21.5q-37 0 -58.5 21.5t-21.5 58.5z" />
<glyph unicode="N" horiz-adv-x="1406" d="M133 80v1382q0 35 23.5 59.5t58.5 24.5h123q51 0 74 -47l-2 2l333 -662l336 -661v1284q0 35 23.5 59.5t58.5 24.5t58.5 -24.5t23.5 -59.5v-1382q0 -37 -23.5 -58.5t-58.5 -21.5h-123q-29 0 -45 11.5t-28 31.5l-668 1319v-1282q0 -37 -23.5 -58.5t-58.5 -21.5t-58.5 21.5 t-23.5 58.5z" />
<glyph unicode="O" horiz-adv-x="1351" d="M100 559v426q0 117 44 218.5t120 178t178.5 120.5t219.5 44q113 0 214 -42t183 -122q80 -80 121 -182t41 -215v-426q0 -115 -44 -217t-120 -178t-177.5 -120t-217.5 -44q-117 0 -219.5 44t-178.5 120t-120 178t-44 217zM266 559q0 -82 31 -153.5t85 -126t126 -85 t154 -30.5t154.5 30.5t125.5 85t85 126t32 153.5v426q0 78 -30 149.5t-89 129.5q-57 59 -129 88.5t-149 29.5q-82 0 -154 -31.5t-126 -85t-85 -126t-31 -154.5v-426z" />
<glyph unicode="P" horiz-adv-x="1165" d="M131 80v1382q0 35 24.5 59.5t61.5 24.5h463q94 0 179 -36.5t148.5 -99t100.5 -147.5t37 -182q0 -96 -37 -181t-100.5 -147.5t-148.5 -98.5t-179 -36h-383v-538q0 -37 -22.5 -58.5t-59.5 -21.5q-35 0 -59.5 21.5t-24.5 58.5zM297 782h383q61 0 115.5 23.5t95.5 64.5 t64.5 95.5t23.5 115.5t-23.5 115.5t-64.5 96.5t-95.5 65.5t-115.5 23.5h-383v-600z" />
<glyph unicode="Q" horiz-adv-x="1368" d="M100 559v426q0 117 44 218.5t121 178t178.5 120.5t218.5 44q111 0 213 -42t184 -122q80 -80 121 -182t41 -215v-426q0 -190 -111 -334l88 -86q27 -25 27 -59q0 -29 -25 -55q-25 -25 -56 -25h-5q-35 2 -58 27l-86 86q-70 -49 -155.5 -81t-177.5 -32q-117 0 -218.5 44 t-178.5 120t-121 178t-44 217zM264 559q0 -82 32 -153.5t85 -126t126 -85t155 -30.5t153.5 30.5t124.5 85t85 126t32 153.5v426q0 168 -115 279q-119 119 -280 118q-82 0 -155 -31.5t-126 -85t-85 -126t-32 -154.5v-426z" />
<glyph unicode="R" horiz-adv-x="1275" d="M131 80v1382q0 35 22.5 59.5t61.5 24.5h461q96 0 181 -36.5t147.5 -99t99.5 -147.5t37 -182q0 -78 -24.5 -148.5t-68.5 -129t-104.5 -101.5t-130.5 -65l324 -514l-2 2q12 -20 12 -43q0 -7 -1 -14q-5 -31 -36 -54q-20 -16 -43 -16q-9 0 -19 3q-34 9 -51 40v-2l-184 291 l-184 288h-336v-538q0 -37 -22.5 -58.5t-57.5 -21.5q-37 0 -59.5 21.5t-22.5 58.5zM293 782h383q61 0 116.5 23.5t96.5 64.5t64.5 95.5t23.5 115.5t-23.5 115.5t-64.5 96.5t-96.5 65.5t-116.5 23.5h-383v-600z" />
<glyph unicode="S" horiz-adv-x="1077" d="M39 80q0 35 21.5 59.5t58.5 24.5h575q66 0 108 45t42 108q0 31 -12.5 58.5t-32.5 50.5l-326 287l-326 288q-47 45 -72.5 104.5t-25.5 125.5t23.5 121t66.5 102q98 92 228 92h573q35 0 59 -24q21 -21 21 -51v-11q-4 -78 -80 -78h-573q-59 0 -111 -45q-43 -47 -43 -106 q0 -66 45 -111v2l326 -287l325 -288q51 -47 76 -107.5t25 -122.5q0 -68 -26 -125t-69 -100t-100 -67.5t-121 -24.5h-575q-37 0 -58.5 25.5t-21.5 54.5z" />
<glyph unicode="T" horiz-adv-x="1099" d="M16 1462q0 35 23.5 59.5t58.5 24.5h881q37 0 58.5 -24.5t21.5 -59.5q0 -37 -21.5 -58.5t-58.5 -21.5h-356v-1302q0 -37 -24 -58.5t-58 -21.5q-37 0 -58.5 21.5t-21.5 58.5v1302h-363q-35 0 -58.5 21.5t-23.5 58.5z" />
<glyph unicode="U" horiz-adv-x="1384" d="M117 559v903q0 35 23.5 59.5t58.5 24.5t58.5 -24.5t23.5 -59.5v-903q0 -82 31.5 -153.5t85 -126t126 -85t154.5 -30.5t154.5 30.5t127 85t86 126t31.5 153.5v903q0 35 21.5 59.5t58.5 24.5t58.5 -24.5t21.5 -59.5v-903q0 -115 -44 -217t-119 -178t-177 -120t-219 -44 t-218.5 44t-178 120t-120.5 178t-44 217z" />
<glyph unicode="V" horiz-adv-x="1411" d="M61 1430q-4 18 -4 32q0 52 49 78q15 4 30 4q20 0 36 -8q29 -14 43 -43l473 -1315l477 1315q12 29 43 43q18 8 37 8q13 0 27 -4h-2q35 -12 49 -40q7 -13 7 -28q0 -17 -9 -36l-249 -692l-249 -691q-27 -53 -80 -53h-102q-53 0 -74 37z" />
<glyph unicode="W" horiz-adv-x="1978" d="M100 1444h2q-4 14 -4 27q0 21 11 37q16 28 51 36v-2q12 4 23 4q21 0 40 -13q29 -19 35 -48l311 -1303l166 652l166 651q12 61 80 61q27 0 48.5 -17.5t27.5 -43.5l303 -1301l157 641l158 643q10 35 40 59q22 17 47 17q9 0 18 -2l-2 2q39 -8 55 -36q11 -18 11 -41 q0 -11 -3 -23l-340 -1381q-8 -29 -30.5 -46t-51.5 -17h-106q-31 0 -52.5 16.5t-27.5 46.5l-66 270l-61 253l-63 254l-66 272l-133 -521l-133 -523q-23 -68 -80 -68h-111q-61 0 -78 63l-171 690z" />
<glyph unicode="X" horiz-adv-x="1372" d="M110 66q-1 7 -2 13q0 22 13 44l452 651l-222 322l-222 321q-15 23 -15 51q0 6 1 12q4 34 35 54l-3 -2q22 12 47 12q8 0 15 -1q33 -5 53 -34l410 -591l205 295l204 296q16 27 51 33q9 2 17 2q23 0 43 -12q27 -20 33 -53t-11 -62l-446 -643l453 -651q12 -21 12 -42 q0 -8 -2 -15q-6 -29 -35 -52q-20 -15 -43 -14q-9 0 -18 2q-33 8 -56 35l-407 596l-206 -299l-206 -299q-20 -27 -54 -34q-9 -2 -17 -2q-24 0 -46 15q-28 23 -33 52z" />
<glyph unicode="Y" horiz-adv-x="1214" d="M41 1479q6 35 35 57q19 10 39 10q10 0 21 -3q32 -7 54 -36l406 -587l204 294l206 295q16 27 49 34q10 2 19 2q22 0 42 -11l2 -2q29 -20 33 -53q1 -7 1 -13q0 -26 -13 -49l-459 -667v-670q0 -37 -24.5 -58.5t-59.5 -21.5t-58.5 21.5t-23.5 58.5v668q-6 6 -8 10l-225 328 l-226 331l2 -2q-18 23 -17 49q0 8 1 15z" />
<glyph unicode="Z" horiz-adv-x="1116" d="M31 80v92q4 8 8 21q2 4 3 8t7 12l417 585l415 584h-766q-31 0 -57.5 21.5t-26.5 58.5q0 35 26.5 59.5t57.5 24.5h856q35 0 57 -26q25 -25 25 -58v-98q0 -16 -2 -26.5t-13 -20.5l-412 -577l-413 -576h758q37 0 59.5 -24.5t22.5 -59.5q0 -37 -22.5 -58.5t-59.5 -21.5h-856 q-25 0 -58 23q-16 18 -21 32.5t-5 24.5z" />
<glyph unicode="[" horiz-adv-x="600" d="M115 236v1042q0 55 19.5 102t53 82t80.5 54.5t101 19.5h112q37 0 58.5 -21.5t21.5 -58.5q0 -35 -21.5 -56.5t-58.5 -21.5h-112q-39 0 -67 -28.5t-28 -71.5v-1042q0 -41 28 -69t67 -28h112q37 0 58.5 -21.5t21.5 -58.5q0 -35 -21.5 -56t-58.5 -21h-112q-53 0 -100.5 19 t-81 54t-53 81.5t-19.5 99.5z" />
<glyph unicode="\" horiz-adv-x="653" d="M0 1509q-8 29 8.5 61t46.5 44q35 6 63.5 -9.5t37.5 -45.5l-2 2l469 -1455q16 -37 -4.5 -66.5t-49.5 -37.5v2q-66 -20 -102 51z" />
<glyph unicode="]" horiz-adv-x="602" d="M16 59q0 37 25 58.5t55 21.5h115q41 0 68.5 28t27.5 69v1042q0 43 -27.5 71.5t-68.5 28.5h-115q-31 0 -55.5 21.5t-24.5 56.5q0 37 25 58.5t55 21.5h115q53 0 100 -19.5t81 -54.5t53.5 -82t19.5 -102v-1042q0 -53 -19.5 -99.5t-53.5 -81.5t-81 -54t-100 -19h-115 q-31 0 -55.5 21t-24.5 56z" />
<glyph unicode="^" horiz-adv-x="925" d="M32 1009.5q-5 32.5 19 61.5l169 205l171 207q16 14 31.5 20t28.5 6q33 0 61 -28l340 -412q18 -27 15 -59.5t-29 -51.5q-29 -25 -61 -17.5t-50 34.5l2 -2l-138 164l-140 163l-140 -163l-139 -164q-27 -27 -54.5 -33t-56.5 18q-24 19 -29 51.5z" />
<glyph unicode="_" horiz-adv-x="970" d="M123 80q0 35 22.5 56.5t57.5 21.5h536q29 0 54.5 -21.5t25.5 -56.5q0 -37 -25.5 -58.5t-54.5 -21.5h-536q-35 0 -57.5 21.5t-22.5 58.5z" />
<glyph unicode="`" horiz-adv-x="542" d="M137 1702q2 31 27 55q23 23 55.5 23t54.5 -25l37 -36q27 -26 35 -36q27 -27 25 -56.5t-25 -51.5q-25 -25 -55.5 -26t-54.5 20l-74 76q-27 26 -25 57z" />
<glyph unicode="a" d="M63 334q0 70 25 129t72 106t108.5 73t130.5 26h209q29 0 45 16h-2q14 14 15 47v27q0 43 -25 65q-23 25 -61 25h-365q-35 0 -58.5 22.5t-23.5 57.5q0 37 23.5 58.5t58.5 21.5h365q47 0 94 -18.5t82 -53.5q72 -76 71 -178v-678q0 -37 -21.5 -58.5t-55.5 -21.5q-59 0 -80 47 q-78 -47 -176 -47h-95q-70 0 -131 25.5t-106 70.5t-72 106.5t-27 131.5zM225 334q0 -37 13.5 -69t37 -55.5t55 -37.5t68.5 -14h95q35 0 66.5 13t53.5 38q51 49 52 125v178q-12 -4 -26.5 -5t-31.5 -1h-209q-74 0 -124 -49t-50 -123z" />
<glyph unicode="b" horiz-adv-x="927" d="M131 78v1362q0 37 21.5 58.5t58.5 21.5t58.5 -21.5t21.5 -58.5v-432h188q80 0 157 -31t134 -90q61 -57 91 -133t30 -158v-186q0 -82 -30 -158t-91 -135v2q-57 -55 -133 -87t-158 -32h-231l-37 -2q-12 0 -30.5 7t-28.5 18q-21 26 -21 55zM291 158h188q102 0 176 75 q37 35 55.5 81t18.5 96v186q0 106 -72 180q-35 35 -80 53.5t-98 18.5h-188v-690z" />
<glyph unicode="c" horiz-adv-x="817" d="M86 399v209q0 82 30.5 155t85 127t128 86t157.5 32h175q35 0 57 -21.5t22 -58.5q0 -35 -22.5 -57.5t-56.5 -22.5h-175q-49 0 -93 -19.5t-75.5 -51.5t-51 -76t-19.5 -93v-209q0 -49 19.5 -93t51 -76.5t75.5 -52t93 -19.5h175q35 0 57 -21.5t22 -56.5q0 -37 -22.5 -58.5 t-56.5 -21.5h-175q-84 0 -157.5 30.5t-128 85t-85 127t-30.5 156.5z" />
<glyph unicode="d" horiz-adv-x="929" d="M8 414v184q0 86 32 161t87 130t130 88t161 33h190v434q0 35 21.5 56.5t58.5 21.5q35 0 56.5 -21.5t21.5 -56.5v-1364q0 -12 -3 -25.5t-20 -31.5q-23 -23 -55 -23l-270 2q-86 0 -161 33t-130 88t-87 130t-32 161zM168 414q0 -53 19.5 -98.5t53 -80t80 -54t97.5 -19.5h190 v688h-190q-51 0 -97.5 -20.5t-80 -54.5t-53 -80t-19.5 -97v-184z" />
<glyph unicode="e" d="M96 399v209q0 82 30 154t89 129v-2q57 59 130 89t153 30q166 0 284 -119q55 -55 86 -128t31 -153v-94q0 -35 -23.5 -58.5t-58.5 -23.5h-561v-33q0 -49 19.5 -93t52 -76.5t77 -52t93.5 -19.5h211q35 0 56 -21.5t21 -56.5q0 -37 -21.5 -58.5t-55.5 -21.5h-211 q-84 0 -157 30.5t-127 85t-86 127t-32 156.5zM256 592h481v16q0 47 -18.5 91t-52.5 79q-68 70 -168 70t-170 -70q-35 -35 -53.5 -79t-18.5 -91v-16z" />
<glyph unicode="f" horiz-adv-x="749" d="M121 80v1102q0 70 26.5 131t72.5 106t107.5 72t131.5 27h209q35 0 58.5 -21.5t23.5 -58.5q0 -35 -24 -56.5t-58 -21.5h-209q-37 0 -69 -14.5t-56.5 -39t-38.5 -56t-14 -68.5v-174h333q35 0 57.5 -21.5t22.5 -58.5q0 -35 -22.5 -57.5t-57.5 -22.5h-333v-768 q0 -37 -21.5 -58.5t-56.5 -21.5t-58.5 21.5t-23.5 58.5z" />
<glyph unicode="g" horiz-adv-x="1021" d="M68 399v209q0 80 29.5 153t88.5 128h-2q55 59 129 89t154 30q68 0 129 -21.5t113 -58.5q0 37 21.5 58.5t57.5 21.5q35 0 58.5 -21.5t23.5 -58.5v-869q0 -84 -31.5 -155.5t-87 -125.5t-129 -85t-155.5 -31h-244q-31 0 -55.5 21.5t-24.5 56.5q0 37 25 58.5t55 21.5h244 q49 0 92 18.5t77 51t53.5 76.5t19.5 93v19q-98 -78 -242 -78q-80 0 -153.5 30.5t-127.5 86.5v-2q-59 55 -88.5 129.5t-29.5 154.5zM227 399q0 -96 68 -170q78 -72 172 -71q49 0 92 19.5t77 52t53.5 76.5t19.5 93v209q0 49 -19.5 93t-53.5 76t-77 51.5t-92 19.5 q-94 0 -172 -72v2q-35 -35 -51.5 -79t-16.5 -91v-209z" />
<glyph unicode="h" d="M131 78v1362q0 37 25.5 58.5t54.5 21.5q35 0 58.5 -21.5t23.5 -58.5v-514q51 39 112.5 60.5t126.5 21.5q82 0 156 -32t128 -86t86 -127t32 -155v-528q0 -37 -22.5 -58.5t-57.5 -21.5q-31 0 -56.5 21.5t-25.5 58.5v528q0 49 -18.5 93t-51 76t-76.5 51.5t-94 19.5 q-92 0 -170 -72v2q-70 -74 -69 -170v-530q0 -31 -23.5 -55.5t-58.5 -24.5q-29 0 -54.5 24.5t-25.5 55.5z" />
<glyph unicode="i" horiz-adv-x="366" d="M90 82v846q0 37 21.5 58.5t56.5 21.5t58.5 -21.5t23.5 -58.5v-846q0 -37 -23.5 -58.5t-58.5 -21.5q-78 0 -78 80zM90 1147q0 37 21.5 58.5t56.5 21.5t58.5 -21.5t23.5 -58.5q0 -35 -23.5 -58.5t-58.5 -23.5t-56.5 23.5t-21.5 58.5z" />
<glyph unicode="j" horiz-adv-x="563" d="M-25 -260q0 37 21.5 58.5t58.5 21.5q49 0 92 18.5t77 51t53.5 76.5t19.5 93v869q0 37 20.5 58.5t59.5 21.5q35 0 56.5 -21.5t21.5 -58.5v-869q0 -84 -32 -155.5t-86 -125.5t-127 -85t-155 -31q-37 0 -58.5 21.5t-21.5 56.5zM297 1147q0 37 20.5 58.5t59.5 21.5 q35 0 56.5 -21.5t21.5 -58.5q0 -35 -21.5 -58.5t-56.5 -23.5q-39 0 -59.5 23.5t-20.5 58.5z" />
<glyph unicode="k" horiz-adv-x="890" d="M131 80v1358q0 37 21.5 58.5t56.5 21.5q39 0 59.5 -21.5t20.5 -58.5v-600h125l107 77l108 78q27 16 59.5 12t48.5 -26q15 -25 15 -54v-13q-4 -36 -33 -52v2l-89 -63l-91 -66l307 -620v2q10 -17 10 -36q0 -13 -5 -26q-11 -33 -40 -49q-16 -7 -32 -7q-14 0 -28 5 q-32 10 -49 39l-313 639h-100v-600q0 -37 -20.5 -58.5t-59.5 -21.5q-35 0 -56.5 21.5t-21.5 58.5z" />
<glyph unicode="l" horiz-adv-x="438" d="M121 82v1358q0 37 23.5 58.5t60.5 21.5q29 0 53.5 -21.5t24.5 -58.5v-1358q0 -37 -25 -58.5t-53 -21.5q-37 0 -60.5 21.5t-23.5 58.5z" />
<glyph unicode="m" horiz-adv-x="1669" d="M141 80v848q0 37 21.5 58.5t56.5 21.5q57 0 78 -54q78 53 178 54h80q78 0 144.5 -33t113.5 -86q47 53 111.5 86t142.5 33h78q68 0 129 -27t107 -72t74 -106.5t28 -130.5v-592q0 -37 -23.5 -58.5t-58.5 -21.5t-57.5 21.5t-22.5 58.5v592q0 37 -14.5 68.5t-38 55t-55 38 t-68.5 14.5h-78q-37 0 -68.5 -14.5t-55 -38t-37 -55t-13.5 -68.5v-592q0 -37 -25.5 -58.5t-54.5 -21.5q-35 0 -58.5 21.5t-23.5 58.5v592q0 37 -14.5 68.5t-38 55t-55 38t-68.5 14.5h-80q-72 0 -121 -50t-53 -122v-596q0 -37 -23.5 -58.5t-58.5 -21.5t-56.5 21.5t-21.5 58.5 z" />
<glyph unicode="n" horiz-adv-x="1087" d="M131 80v848q0 37 23.5 58.5t58.5 21.5q59 0 76 -52q80 51 180 52h127q70 0 131 -27t107.5 -72t73 -106.5t26.5 -130.5v-592q0 -37 -24.5 -58.5t-53.5 -21.5q-37 0 -60.5 21.5t-23.5 58.5v592q0 37 -14.5 68.5t-38 55t-55 38t-68.5 14.5h-127q-72 0 -122 -50t-54 -122 v-596q0 -37 -22.5 -58.5t-57.5 -21.5t-58.5 21.5t-23.5 58.5z" />
<glyph unicode="o" horiz-adv-x="1024" d="M96 399v209q0 80 31 153t86 128h-2q55 59 130 89t155 30q82 0 154.5 -30t129.5 -89q55 -55 86 -128t31 -153v-209q0 -84 -31.5 -156.5t-86 -127t-128 -85t-155.5 -30.5q-84 0 -157 30.5t-127 85t-85 127t-31 156.5zM256 399q0 -49 19.5 -93t51 -76.5t75.5 -52t94 -19.5 q49 0 93 19.5t77.5 52t53 76.5t19.5 93v209q0 47 -18.5 91t-52.5 79q-70 70 -172 70q-94 0 -170 -70q-70 -74 -70 -170v-209z" />
<glyph unicode="p" horiz-adv-x="989" d="M131 -260v1188q0 37 23.5 58.5t58.5 21.5t57.5 -21.5t22.5 -58.5q104 80 239 80q80 0 154 -30t129 -87q61 -57 90 -129t29 -154v-209q0 -84 -32 -156.5t-86 -127t-127 -85t-157 -30.5q-66 0 -128 19.5t-111 56.5v-336q0 -35 -22.5 -56.5t-57.5 -21.5t-58.5 21.5 t-23.5 56.5zM293 399q0 -49 19.5 -93t51 -76.5t75.5 -52t93 -19.5q51 0 95.5 19.5t77 52t51 76.5t18.5 93v209q0 45 -18.5 90t-50.5 80h2q-72 70 -175 70q-100 0 -170 -70q-70 -74 -69 -170v-209z" />
<glyph unicode="q" horiz-adv-x="987" d="M20 399v209q0 80 31 153t86 128q53 59 128 89t157 30q68 0 128 -21.5t114 -58.5q0 37 21.5 58.5t57.5 21.5q35 0 56.5 -21.5t21.5 -58.5v-1188q0 -35 -21.5 -56.5t-56.5 -21.5q-37 0 -58 21.5t-21 56.5v338q-102 -78 -242 -78q-84 0 -156.5 30.5t-127 85t-86.5 127 t-32 156.5zM180 399q0 -49 19.5 -93t52.5 -76.5t77 -52t93 -19.5t92 19.5t77 52t53.5 76.5t19.5 93v209q0 49 -19.5 93t-53.5 76t-77 51.5t-92 19.5q-96 0 -172 -70q-70 -74 -70 -170v-209z" />
<glyph unicode="r" horiz-adv-x="673" d="M127 80v848q0 37 25.5 58.5t54.5 21.5t48 -13.5t30 -36.5q80 49 178 50h131q35 0 56.5 -21.5t21.5 -58.5q0 -35 -21.5 -57.5t-56.5 -22.5h-131q-35 0 -66.5 -12.5t-54.5 -36.5q-53 -57 -53 -123v-596q0 -37 -23.5 -58.5t-58.5 -21.5q-29 0 -54.5 21.5t-25.5 58.5z" />
<glyph unicode="s" horiz-adv-x="827" d="M55 80q0 35 21.5 56.5t56.5 21.5h377q12 0 26 7l25 13q8 10 10 21.5t2 21.5q0 23 -16 49l-203 175l-200 178q-70 68 -70 163q0 45 18.5 86t47.5 72q61 66 159 66h328q35 0 58.5 -21.5t23.5 -56.5q0 -39 -23.5 -60.5t-58.5 -21.5h-328q-29 0 -47 -19q-16 -20 -16 -45 q0 -33 12 -43q2 -2 104 -91l304 -267q70 -66 69 -164q0 -88 -67 -155q-61 -66 -158 -66h-377q-35 0 -56.5 21.5t-21.5 58.5z" />
<glyph unicode="t" horiz-adv-x="684" d="M113 399v1039q0 37 23.5 58.5t58.5 21.5q31 0 55 -21.5t24 -58.5v-430h265q35 0 57 -21.5t22 -58.5q0 -35 -22.5 -57.5t-56.5 -22.5h-265v-449q0 -49 18.5 -93t51.5 -76.5t77 -52t95 -19.5h90q31 0 55.5 -21.5t24.5 -56.5q0 -37 -24.5 -58.5t-55.5 -21.5h-90 q-84 0 -157.5 30.5t-128 85t-86 127t-31.5 156.5z" />
<glyph unicode="u" horiz-adv-x="1058" d="M119 336v592q0 37 24.5 58.5t55.5 21.5q35 0 57.5 -21.5t22.5 -58.5v-592q0 -37 14 -68.5t38.5 -56.5t56.5 -39t69 -14h98q70 0 122 50t52 120v600q0 37 24.5 58.5t59.5 21.5q29 0 53.5 -21.5t24.5 -58.5v-848q0 -37 -24.5 -58.5t-53.5 -21.5q-59 0 -80 49 q-74 -49 -178 -49h-98q-70 0 -131.5 25.5t-107.5 71.5t-72.5 106.5t-26.5 132.5z" />
<glyph unicode="v" horiz-adv-x="976" d="M61 893q-5 17 -5 32q0 54 63 83q7 1 13 1q22 0 43 -11q28 -13 36 -52l-2 4l69 -188l62 -174l62 -175l69 -190l133 364l133 363q10 37 37 49q18 8 39 9q11 0 23 -2l8 -5q29 -16 41 -43q7 -15 6 -32q0 -15 -4 -33l-307 -840q-16 -53 -76 -53h-62q-59 0 -77 53z" />
<glyph unicode="w" horiz-adv-x="1368" d="M100 907q-3 10 -2 21q0 20 11 40q16 30 49 38q9 2 17 1q25 0 45 -14q28 -18 38 -47l44 -176l38 -157l38 -156l44 -176l85 330l83 333q27 63 82 64q27 0 47 -17.5t26 -44.5l160 -655l80 320l80 323q12 33 39 55q21 18 47 18q7 0 14 -1q37 -8 54 -39q11 -20 10 -40 q0 -10 -2 -20l-209 -846q-16 -61 -80 -61h-66q-61 0 -77 61l-33 136l-29 122l-30 125l-33 142l-69 -264l-69 -263q-23 -59 -77 -59h-64q-59 0 -82 59z" />
<glyph unicode="x" horiz-adv-x="964" d="M83 65q-2 9 -2 17q0 24 15 45l258 375l-131 190l-131 189q-10 20 -10 40q0 9 2 18q6 30 35 48q22 14 49 14q5 0 10 -1q33 -3 53 -35l-2 2l59 -84l54 -78l54 -78l59 -84l111 162l112 162l-2 -2q18 31 51 35t61 -13q29 -18 33 -50q1 -6 1 -13q0 -25 -13 -47l-258 -375 l260 -375q9 -22 9 -47q0 -9 -1 -18q-4 -36 -28 -54q-19 -11 -41 -11q-11 0 -22 3q-34 8 -50 37l2 -2l-113 162l-112 163l-114 -163l-114 -162l2 2q-16 -29 -50 -36q-9 -2 -18 -2q-23 0 -42 13q-29 19 -36 53z" />
<glyph unicode="y" horiz-adv-x="1003" d="M84 954q12 29 41 50q16 9 32 9l25 -6q29 -13 45 -44l295 -596l141 297l140 299q16 31 46 43q13 5 26 5q18 0 36 -10q29 -16 38 -47q4 -15 5 -29q0 -16 -6 -32l-559 -1190q-16 -29 -48 -41q-14 -5 -27 -5q-17 0 -33 9h2q-35 16 -43 47q-3 11 -3 24q0 22 9 48l190 401 l-175 353l-173 352q-9 20 -9 38q0 13 5 25z" />
<glyph unicode="z" horiz-adv-x="862" d="M74 80v72q2 4 3 8t3 8q4 14 14 27l238 326l239 327h-413q-35 0 -59.5 22.5t-24.5 57.5q0 37 24.5 58.5t59.5 21.5h524q37 0 59 -27q20 -23 21 -53v-64q0 -14 -2 -24.5t-12 -20.5l-240 -330l-244 -331h418q37 0 58.5 -21.5t21.5 -56.5q0 -37 -21.5 -58.5t-58.5 -21.5h-524 q-43 0 -60 25q-24 20 -24 55z" />
<glyph unicode="|" horiz-adv-x="438" d="M121 -76v1667q0 35 23.5 58.5t58.5 23.5t57.5 -23.5t22.5 -58.5v-1667q0 -35 -22.5 -56.5t-57.5 -21.5t-58.5 21.5t-23.5 56.5z" />
<glyph unicode="~" horiz-adv-x="1282" d="M213 754q0 80 44 145.5t116 95.5q53 16 98 17q63 0 111 -27h-2q47 -23 79.5 -59.5t47.5 -83.5q12 -41 46.5 -55.5t75.5 -2.5q35 12 52 43v-2q6 16 7 39t-3 41q-10 29 3 61.5t46 43.5q27 8 56.5 -3.5t43.5 -45.5q10 -20 13.5 -44t3.5 -49q0 -55 -27 -108l2 2 q-18 -43 -60 -79t-83 -52q-23 -8 -45.5 -11.5t-44.5 -3.5q-76 0 -141.5 42t-94.5 116q-8 29 -20.5 44.5t-28.5 23.5l2 -2q-16 6 -34.5 9t-41.5 -5h2q-35 -14 -55.5 -50t-7.5 -75q10 -33 -4.5 -60.5t-36.5 -35.5q-31 -12 -60.5 1t-42.5 44q-16 45 -16 86z" />
<glyph unicode="&#xa3;" horiz-adv-x="1073" d="M133 655q0 27 21.5 50.5t50.5 23.5h110q-14 16 -24 35l-21 37h-65q-29 0 -50.5 21.5t-21.5 51.5q0 33 21.5 54.5t50.5 21.5h24v17q0 76 30 145.5t83 120.5q53 53 121.5 81.5t140.5 28.5t141.5 -27.5t124.5 -80.5q25 -23 26 -56.5t-26 -56.5t-57.5 -22.5t-52.5 24.5 q-72 61 -156 62q-88 0 -149 -62q-66 -66 -66 -157q0 -4 -1 -8.5t1 -8.5h277q33 0 55 -21.5t22 -54.5q0 -31 -22.5 -52t-54.5 -21h-197q16 -18 26.5 -37t20.5 -35h150q33 0 55 -23.5t22 -50.5q0 -33 -22.5 -54t-54.5 -21h-103v-29q0 -53 -13 -103.5t-36 -91.5q8 -2 16 -2h15 l67 -14q35 -6 59.5 -4t42 8t28 14.5t16.5 14.5q14 29 45 37t59 -9q29 -16 37 -47.5t-8 -60.5q-4 -8 -20.5 -28.5t-44 -41t-69.5 -36t-98 -15.5q-18 0 -39.5 1t-39.5 5q-16 4 -34 7t-36 8q-4 2 -8 2t-8 2q-55 12 -91 12q-23 0 -45 -4t-57 -17l-8 -6h-10q-12 -4 -23 -4 q-29 0 -51.5 16.5t-28.5 45.5l2 -2q-12 33 7.5 64.5t48.5 37.5q2 0 6 4h16q23 10 41 20.5t39 32.5q31 29 47 70t16 84v29h-198q-29 0 -50.5 21t-21.5 54z" />
<glyph unicode="&#xa5;" horiz-adv-x="1214" d="M155.5 1298.5q8.5 30.5 34.5 47.5q25 18 59 13t50 -34l-2 2l145 -211l146 -209l146 210l147 210l-2 -2q16 29 51 34t65 -16q25 -16 31 -45.5t-8 -58.5l-252 -365h59q35 0 54.5 -21.5t19.5 -51.5q0 -37 -19.5 -58.5t-54.5 -21.5h-153v-82h153q35 0 54.5 -20.5t19.5 -55.5 q0 -31 -19.5 -52.5t-54.5 -21.5h-153v-247q0 -33 -24.5 -56.5t-59.5 -23.5q-27 0 -51.5 23.5t-24.5 56.5v247h-154q-29 0 -51 21.5t-22 52.5q0 35 22.5 55.5t50.5 20.5h154v82h-154q-29 0 -51 21.5t-22 58.5q0 31 22.5 52t50.5 21h58l-127 184l-127 181q-15 29 -6.5 59.5z " />
<glyph unicode="&#xa7;" horiz-adv-x="1222" d="M172 903q0 55 20.5 109.5t61.5 91.5q33 27 70 45q-16 14 -32 29.5t-32 29.5h2q-47 41 -68.5 91.5t-21.5 109.5t20.5 106.5t61.5 88.5q80 80 195 79h284q111 0 195 -79q86 -86 86 -195q0 -35 -25.5 -58.5t-54.5 -23.5q-41 0 -61.5 23.5t-20.5 58.5q0 49 -37 82 q-37 37 -82 37h-284q-49 0 -82 -37q-18 -16 -29.5 -37.5t-11.5 -44.5q0 -41 34 -82q10 -6 30 -24.5t42 -36.5q25 -23 55 -47l137 -120l134 -120l164 -145h-2q47 -41 70.5 -95.5t23.5 -113.5q0 -78 -43 -143.5t-107 -100.5l28 -28q15 -15 30 -27h-2q47 -41 70.5 -94.5 t23.5 -112.5t-22.5 -109.5t-60.5 -89.5t-88 -60.5t-108 -21.5h-282q-119 0 -199 86q-41 39 -59.5 88t-18.5 107q0 37 21.5 58.5t58.5 21.5q39 0 57.5 -21.5t18.5 -58.5q0 -23 9 -46.5t26 -41.5v2q33 -37 86 -37h282q47 0 82 37t35 86q0 27 -11.5 48t-29.5 42q-10 6 -37 30 l-55 48l-76 65l-262 234l-121 104q-88 90 -88 213zM326 903q0 -45 34 -86q10 -6 30 -24.5t42 -36.5l55 -49q43 -37 82 -74l72 -65q37 -34 66 -56h28q47 0 82 33t35 80q0 29 -11.5 51t-29.5 45l2 -4q-6 4 -33 26l-57 50l-80 65l-55 55l-54 54q-30 29 -61 55h-24 q-49 0 -84 -39q-16 -14 -27.5 -37t-11.5 -43z" />
<glyph unicode="&#xa9;" horiz-adv-x="1388" d="M88 762q0 123 46 229.5t126 185t186.5 125t227.5 46.5t226.5 -46.5t184 -125t124.5 -185t46 -229.5q0 -121 -46 -227.5t-124.5 -186.5t-184 -126t-226.5 -46t-227.5 46t-186.5 126t-126 186.5t-46 227.5zM229 760q0 -90 35 -170t95.5 -140.5t142.5 -95.5t176 -35 q90 0 169 35t138 95.5t94 140.5t35 170q0 92 -35 174t-94 141.5t-138 94t-169 34.5q-94 0 -176 -34.5t-142.5 -94t-95.5 -141.5t-35 -174zM383 674v174q0 57 21.5 108.5t59.5 89t88 59t107 21.5h105q31 0 56.5 -25.5t25.5 -51.5q0 -31 -25.5 -51.5t-56.5 -20.5h-105 q-53 0 -90 -39t-37 -90v-174q0 -51 37 -87t90 -36h105q31 0 56.5 -22.5t25.5 -55.5q0 -31 -25.5 -52.5t-56.5 -21.5h-105q-57 0 -107 21.5t-88 58.5t-59.5 87.5t-21.5 107.5z" />
<glyph unicode="&#xaa;" d="M63 334q0 70 25 129t72 106t108.5 73t130.5 26h209q29 0 45 16h-2q14 14 15 47v27q0 43 -25 65q-23 25 -61 25h-365q-35 0 -58.5 22.5t-23.5 57.5q0 37 23.5 58.5t58.5 21.5h365q47 0 94 -18.5t82 -53.5q72 -76 71 -178v-678q0 -37 -21.5 -58.5t-55.5 -21.5q-59 0 -80 47 q-78 -47 -176 -47h-95q-70 0 -131 25.5t-106 70.5t-72 106.5t-27 131.5zM225 334q0 -37 13.5 -69t37 -55.5t55 -37.5t68.5 -14h95q35 0 66.5 13t53.5 38q51 49 52 125v178q-12 -4 -26.5 -5t-31.5 -1h-209q-74 0 -124 -49t-50 -123z" />
<glyph unicode="&#xab;" horiz-adv-x="980" d="M-6 758q0 33 29 61l409 340q27 18 60.5 15t52.5 -29h-2q27 -29 18.5 -60.5t-33.5 -48.5l2 2l-163 -140l-164 -140l164 -140l163 -139q27 -27 33 -54.5t-18 -55.5q-18 -25 -51 -29t-62 18l-205 170l-207 170q-26 33 -26 60zM303 758q0 35 29 61l409 340q27 18 60 15 t51 -29h-2q27 -29 19.5 -60.5t-31.5 -48.5l2 2l-166 -140l-164 -140l165 -140l165 -139q27 -27 32 -54.5t-20 -55.5q-18 -25 -50 -29t-61 18l-206 170l-205 170q-16 16 -21.5 32t-5.5 28z" />
<glyph unicode="&#xad;" horiz-adv-x="866" d="M76 758q0 37 24.5 58.5t59.5 21.5h510q29 0 53.5 -21.5t24.5 -58.5q0 -35 -25 -56.5t-53 -21.5h-510q-35 0 -59.5 21.5t-24.5 56.5z" />
<glyph unicode="&#xae;" horiz-adv-x="1355" d="M72 762q0 123 47 229.5t127 185t187.5 125t228.5 46.5q119 0 225 -46.5t184 -125t124 -185t46 -229.5q0 -121 -46 -227.5t-124 -186.5t-184.5 -126t-224.5 -46q-121 0 -228.5 46t-187.5 126t-127 186.5t-47 227.5zM215 760q0 -90 35 -170t95.5 -140.5t142 -95.5 t176.5 -35q90 0 168.5 35t138 95.5t94.5 140.5t35 170q0 92 -35 174t-94.5 141.5t-138 94t-168.5 34.5q-94 0 -176 -34.5t-142.5 -94t-95.5 -141.5t-35 -174zM438 496v542q0 23 23.5 47.5t52.5 24.5h178q43 0 85 -19.5t71 -48.5l-4 2q37 -31 54 -71.5t17 -87.5 q0 -45 -17 -86t-54 -70l2 4l-8 -6q-10 -10 -17.5 -18.5t-17.5 -14.5l108 -166q14 -27 3 -51t-29 -37q-68 -31 -103 25l2 -2l-66 101l-67 102h-67v-170q0 -29 -22.5 -48.5t-47.5 -19.5q-29 0 -52.5 19.5t-23.5 48.5zM584 807h108q35 0 58 22l17 29q7 12 7 27q0 33 -26 53 q-25 31 -56 31h-108v-162z" />
<glyph unicode="&#xb0;" horiz-adv-x="460" d="M18 1616q0 72 51.5 122t123.5 50q35 0 65.5 -13.5t54 -37t38 -54t14.5 -67.5q0 -35 -14.5 -63.5t-35.5 -55.5q-53 -53 -122 -53q-74 0 -125 51q-50 55 -50 121zM152 1616q0 -12 18 -31q4 -4 23 -4q16 0 24 8q12 12 12 27q0 16 -11 26.5t-25 10.5q-16 0 -28.5 -10.5 t-12.5 -26.5z" />
<glyph unicode="&#xb2;" horiz-adv-x="1075" d="M43 41q-16 49 8 90l746 985v-2q29 37 28 90q0 63 -45 111h2q-45 45 -106 45h-551q-29 0 -53.5 21.5t-24.5 56.5q0 37 24.5 58.5t53.5 21.5h551q131 0 221 -93q43 -43 66.5 -99t23.5 -122q0 -100 -65 -188l-641 -858h637q35 0 58 -20.5t23 -57.5t-23.5 -58.5t-57.5 -21.5 h-801q-54 0 -74 41z" />
<glyph unicode="&#xb3;" horiz-adv-x="1056" d="M-6 80q0 35 23.5 56.5t58.5 21.5h489q37 0 71 14t59.5 40t40 60.5t14.5 73.5v146q0 72 -47.5 123t-112.5 61h-389q-37 0 -58.5 23.5t-21.5 58.5q0 80 80 80h387q66 12 114 63t48 121v145q0 39 -14.5 74t-40 60.5t-59.5 40t-71 14.5h-489q-35 0 -58.5 24.5t-23.5 53.5 q0 37 23.5 60.5t58.5 23.5h489q70 0 133.5 -28t110.5 -76t74.5 -111.5t27.5 -135.5v-145q0 -78 -34.5 -147.5t-88.5 -116.5q49 -47 86 -119t37 -147v-146q0 -72 -27.5 -135.5t-74.5 -110.5t-110.5 -73.5t-133.5 -26.5h-489q-35 0 -58.5 21.5t-23.5 58.5z" />
<glyph unicode="&#xb9;" horiz-adv-x="423" d="M-23 1438q0 37 24 58.5t58 21.5h142q35 0 56.5 -21.5t21.5 -58.5v-1358q0 -37 -21.5 -58.5t-56.5 -21.5q-37 0 -58.5 21.5t-21.5 58.5v1280h-62q-35 0 -58.5 21.5t-23.5 56.5z" />
<glyph unicode="&#xba;" horiz-adv-x="479" d="M68 1708q0 35 13 65.5t36.5 54t54.5 37t68 13.5q70 0 121 -49t51 -121q0 -35 -13.5 -64.5t-36.5 -56.5q-53 -53 -122 -53q-70 0 -125 51q-47 53 -47 123zM201 1708q0 -16 16 -31q2 -6 23 -6q16 0 26 8q10 14 10 29q0 14 -10 25.5t-26 11.5t-27.5 -11.5t-11.5 -25.5z" />
<glyph unicode="&#xbb;" horiz-adv-x="966" d="M56 423q3 30 30 56l330 279l-165 139l-165 141l2 -2q-27 20 -31 52t19 59q25 25 53.5 27t54.5 -15l414 -342q10 -10 17.5 -26.5t7.5 -32.5q0 -29 -21 -58l-416 -342q-25 -23 -55.5 -18.5t-54.5 29.5q-23 24 -20 54zM365.5 423q3.5 30 29.5 56l328 279l-164 139l-164 141 l2 -2q-27 20 -32 52t18 59q25 25 54.5 27t56.5 -15l413 -342q8 -10 16.5 -26.5t8.5 -32.5q0 -25 -23 -58l-415 -342q-23 -23 -54.5 -18.5t-56.5 29.5q-21 24 -17.5 54z" />
<glyph unicode="&#xbc;" horiz-adv-x="2467" d="M1325 643q0 53 24.5 107.5t65.5 101.5l612 639q27 27 60 27h86q35 0 56.5 -21.5t21.5 -58.5v-889h12q35 0 58.5 -23.5t23.5 -58.5q0 -29 -23.5 -53.5t-58.5 -24.5h-12v-309q0 -37 -21.5 -58.5t-56.5 -21.5q-37 0 -58.5 21.5t-21.5 58.5v309h-514q-51 0 -97.5 20.5 t-81 54.5t-55 80t-20.5 99zM1485 643q0 -39 28.5 -66.5t65.5 -27.5h514q0 207 7 398.5t9 398.5l-286 -302l-287 -301v2q-23 -27 -37 -53t-14 -49zM2109 1346v28l11 -14q-5 -8 -11 -14zM1245 1507q35 -16 44 -43.5t-1 -54.5l-702 -1368q-16 -29 -47 -39t-62 2q-29 16 -40 49 t5 62v-2l352 682l351 682q20 29 48 36t50 -4zM-23 1438q0 37 24 58.5t58 21.5h142q35 0 56.5 -21.5t21.5 -58.5v-1358q0 -37 -21.5 -58.5t-56.5 -21.5q-37 0 -58.5 21.5t-21.5 58.5v1280h-62q-35 0 -58.5 21.5t-23.5 56.5z" />
<glyph unicode="&#xbd;" horiz-adv-x="2404" d="M1372 41q-16 49 8 90l746 985v-2q29 37 28 90q0 63 -45 111h2q-45 45 -106 45h-551q-29 0 -53.5 21.5t-24.5 56.5q0 37 24.5 58.5t53.5 21.5h551q131 0 221 -93q43 -43 66.5 -99t23.5 -122q0 -100 -65 -188l-641 -858h637q35 0 58 -20.5t23 -57.5t-23.5 -58.5 t-57.5 -21.5h-801q-54 0 -74 41zM1245 1507q35 -16 44 -43.5t-1 -54.5l-702 -1368q-16 -29 -47 -39t-62 2q-29 16 -40 49t5 62v-2l352 682l351 682q20 29 48 36t50 -4zM-23 1438q0 37 24 58.5t58 21.5h142q35 0 56.5 -21.5t21.5 -58.5v-1358q0 -37 -21.5 -58.5t-56.5 -21.5 q-37 0 -58.5 21.5t-21.5 58.5v1280h-62q-35 0 -58.5 21.5t-23.5 56.5z" />
<glyph unicode="&#xbe;" horiz-adv-x="3100" d="M1958 643q0 53 24.5 107.5t65.5 101.5l612 639q27 27 60 27h86q35 0 56.5 -21.5t21.5 -58.5v-889h12q35 0 58.5 -23.5t23.5 -58.5q0 -29 -23.5 -53.5t-58.5 -24.5h-12v-309q0 -37 -21.5 -58.5t-56.5 -21.5q-37 0 -58.5 21.5t-21.5 58.5v309h-514q-51 0 -97.5 20.5 t-81 54.5t-55 80t-20.5 99zM2118 643q0 -39 28.5 -66.5t65.5 -27.5h514q0 207 7 398.5t9 398.5l-286 -302l-287 -301v2q-23 -27 -37 -53t-14 -49zM2742 1346v28l11 -14q-5 -8 -11 -14zM1878 1507q35 -16 44 -43.5t-1 -54.5l-702 -1368q-16 -29 -47 -39t-62 2q-29 16 -40 49 t5 62v-2l352 682l351 682q20 29 48 36t50 -4zM-6 80q0 35 23.5 56.5t58.5 21.5h489q37 0 71 14t59.5 40t40 60.5t14.5 73.5v146q0 72 -47.5 123t-112.5 61h-389q-37 0 -58.5 23.5t-21.5 58.5q0 80 80 80h387q66 12 114 63t48 121v145q0 39 -14.5 74t-40 60.5t-59.5 40 t-71 14.5h-489q-35 0 -58.5 24.5t-23.5 53.5q0 37 23.5 60.5t58.5 23.5h489q70 0 133.5 -28t110.5 -76t74.5 -111.5t27.5 -135.5v-145q0 -78 -34.5 -147.5t-88.5 -116.5q49 -47 86 -119t37 -147v-146q0 -72 -27.5 -135.5t-74.5 -110.5t-110.5 -73.5t-133.5 -26.5h-489 q-35 0 -58.5 21.5t-23.5 58.5z" />
<glyph unicode="&#xbf;" horiz-adv-x="847" d="M-10 373q0 78 28.5 146.5t80 118.5t119 80t144.5 30q61 0 109 40l-2 -4q20 25 32.5 52.5t12.5 62.5v117q0 37 24.5 60.5t53.5 23.5q37 0 59.5 -23.5t22.5 -60.5v-117q0 -131 -90 -221q-92 -92 -222 -92q-43 0 -81.5 -16.5t-68.5 -46t-46 -68.5t-16 -82t16 -83t46 -68.5 t68.5 -46t81.5 -17.5h383q37 0 58.5 -21.5t21.5 -56.5q0 -37 -21.5 -58.5t-58.5 -21.5h-383q-78 0 -145 28.5t-118.5 79t-80 118t-28.5 147.5zM514 1419q0 35 24.5 56.5t53.5 21.5q37 0 59.5 -21.5t22.5 -56.5q0 -37 -22.5 -58.5t-59.5 -21.5q-29 0 -53.5 21.5t-24.5 58.5z " />
<glyph unicode="&#xc0;" horiz-adv-x="1413" d="M53 109l237 689l236 691q25 57 76 57h154q55 0 78 -57l477 -1380q10 -31 -3.5 -62t-47.5 -43h2q-31 -12 -63 4.5t-42 50.5v-2l-75 214l-74 216h-654l-73 -215l-74 -215q-14 -29 -45 -46t-60 -7q-29 12 -45 43t-4 64v-2zM414 651h538l-129 366l-127 365h-32l-124 -363z M556 1772.5q1 31.5 28 56.5q23 23 56.5 22.5t55.5 -24.5q4 -6 15 -17l22 -21l23 -21q10 -9 14 -13q27 -27 25 -58.5t-25 -54.5q-27 -25 -58.5 -25.5t-56.5 19.5l-73 78q-27 27 -26 58.5z" />
<glyph unicode="&#xc1;" horiz-adv-x="1413" d="M53 109l237 689l236 691q25 57 76 57h154q55 0 78 -57l477 -1380q10 -31 -3.5 -62t-47.5 -43h2q-31 -12 -63 4.5t-42 50.5v-2l-75 214l-74 216h-654l-73 -215l-74 -215q-14 -29 -45 -46t-60 -7q-29 12 -45 43t-4 64v-2zM414 651h538l-129 366l-127 365h-32l-124 -363z M591 1699q-1 32 19 58l76 74q29 27 60.5 24.5t56.5 -26.5q23 -23 22.5 -56.5t-24.5 -56.5l-72 -74q-29 -27 -60.5 -24.5t-52.5 24.5q-24 25 -25 57z" />
<glyph unicode="&#xc2;" horiz-adv-x="1413" d="M53 109l237 689l236 691q25 57 76 57h154q55 0 78 -57l477 -1380q10 -31 -3.5 -62t-47.5 -43h2q-31 -12 -63 4.5t-42 50.5v-2l-75 214l-74 216h-654l-73 -215l-74 -215q-14 -29 -45 -46t-60 -7q-29 12 -45 43t-4 64v-2zM389 1772.5q2 31.5 27 56.5q23 23 57.5 22.5 t56.5 -24.5q4 -6 15 -17l21 -21q11 -11 21.5 -20.5t14.5 -13.5q29 -27 26 -58.5t-26 -54.5q-25 -25 -56.5 -25.5t-56.5 19.5l-73 78q-29 27 -27 58.5zM414 651h538l-129 366l-127 365h-32l-124 -363zM724 1699q-1 32 19 58l76 74q29 27 60.5 24.5t56.5 -26.5 q23 -23 22.5 -56.5t-24.5 -56.5l-72 -74q-29 -27 -60.5 -24.5t-51.5 24.5q-25 25 -26 57z" />
<glyph unicode="&#xc3;" horiz-adv-x="1413" d="M53 109l237 689l236 691q25 57 76 57h154q55 0 78 -57l477 -1380q10 -31 -3.5 -62t-47.5 -43h2q-31 -12 -63 4.5t-42 50.5v-2l-75 214l-74 216h-654l-73 -215l-74 -215q-14 -29 -45 -46t-60 -7q-29 12 -45 43t-4 64v-2zM375 1743q0 59 35.5 106t91.5 68q37 10 67 10 q23 0 42.5 -4t35.5 -10q29 -18 56.5 -50t39.5 -61q18 -29 52 -16q12 0 20 14l-2 -2q2 4 3 11.5t-3 15.5v-4q-16 33 -6 61.5t39 38.5t63.5 -1t48.5 -46q6 -33 6.5 -70t-16.5 -71h2q-16 -35 -43.5 -59.5t-68.5 -35.5q-74 -23 -142.5 8t-97.5 107v-2q-4 12 -12 16 q-4 2 -12.5 4.5t-16.5 -2.5q-12 -4 -19.5 -16t-2.5 -27q10 -29 -2.5 -59.5t-40.5 -40.5h4q-29 -12 -59.5 1t-47.5 44q-14 31 -14 72zM414 651h538l-129 366l-127 365h-32l-124 -363z" />
<glyph unicode="&#xc4;" horiz-adv-x="1429" d="M53 109l237 689l236 691q25 57 76 57h154q55 0 78 -57l477 -1380q10 -31 -3.5 -62t-47.5 -43h2q-31 -12 -63 4.5t-42 50.5v-2l-75 214l-74 216h-654l-73 -215l-74 -215q-14 -29 -45 -46t-60 -7q-29 12 -45 43t-4 64v-2zM301 1626q0 35 23.5 58.5t58.5 23.5t58.5 -23.5 t23.5 -58.5t-23.5 -58.5t-58.5 -23.5t-58.5 23.5t-23.5 58.5zM414 651h538l-129 366l-127 365h-32l-124 -363zM924 1626q0 35 23.5 58.5t58.5 23.5t58 -23.5t23 -58.5t-23.5 -58.5t-57.5 -23.5q-35 0 -58.5 23.5t-23.5 58.5z" />
<glyph unicode="&#xc5;" horiz-adv-x="1390" d="M53 109l237 689l236 691q25 57 76 57h154q55 0 78 -57l477 -1380q10 -31 -3.5 -62t-47.5 -43h2q-31 -12 -63 4.5t-42 50.5v-2l-75 214l-74 216h-654l-73 -215l-74 -215q-14 -29 -45 -46t-60 -7q-29 12 -45 43t-4 64v-2zM414 651h538l-129 366l-127 365h-32l-124 -363z M504 1798q0 72 51 123t125 51q35 0 66.5 -13t55 -37t38 -55.5t14.5 -68.5q0 -35 -14.5 -64.5t-34.5 -56.5q-55 -55 -125 -55q-72 0 -129 53q-47 53 -47 123zM639 1798q0 -14 16 -31q2 -6 25 -6q14 0 25 11q12 12 12 26q0 16 -11.5 26.5t-25.5 10.5q-16 0 -28.5 -10.5 t-12.5 -26.5z" />
<glyph unicode="&#xc7;" horiz-adv-x="1024" d="M88 563v422q0 117 44 219.5t120 178t178 119.5t219 44h266q37 0 58.5 -22.5t21.5 -59.5q0 -35 -21.5 -59.5t-58.5 -24.5h-266q-82 0 -153.5 -31.5t-126 -85t-85 -125t-30.5 -153.5v-422q0 -82 28.5 -154.5t84.5 -123.5q55 -59 128.5 -91t153.5 -32h266q37 0 58.5 -21.5 t21.5 -58.5q0 -35 -21.5 -59.5t-58.5 -24.5h-174q-8 0 -8 -12v-2q14 -10 17 -11q66 0 111.5 -45t45.5 -116q0 -70 -46 -116t-111 -46h-88q-31 0 -52.5 21.5t-21.5 52.5t21.5 53t52.5 22h88q10 0 10 13q0 16 -10 16q-31 0 -64 13.5t-61 35.5q-41 37 -41 109v20 q-88 12 -179.5 54t-152.5 108h2q-166 166 -166 395z" />
<glyph unicode="&#xc8;" horiz-adv-x="1134" d="M131 80v1382q0 35 22.5 59.5t57.5 24.5h829q35 0 58.5 -24.5t23.5 -59.5q0 -37 -23.5 -58.5t-58.5 -21.5h-747v-458h655q35 0 58.5 -23.5t23.5 -58.5t-23.5 -58.5t-58.5 -23.5h-655v-596h747q35 0 58.5 -24.5t23.5 -59.5q0 -37 -23.5 -58.5t-58.5 -21.5h-829 q-35 0 -57.5 21.5t-22.5 58.5zM496 1793q2 32 26 56q23 23 57.5 23t57.5 -25q4 -6 14 -16l22 -22q11 -11 21.5 -20t14.5 -13q29 -27 25.5 -58.5t-25.5 -54.5q-25 -25 -56.5 -26t-56.5 20l-74 78q-28 26 -26 58z" />
<glyph unicode="&#xc9;" horiz-adv-x="1134" d="M131 80v1382q0 35 22.5 59.5t57.5 24.5h829q35 0 58.5 -24.5t23.5 -59.5q0 -37 -23.5 -58.5t-58.5 -21.5h-747v-458h655q35 0 58.5 -23.5t23.5 -58.5t-23.5 -58.5t-58.5 -23.5h-655v-596h747q35 0 58.5 -24.5t23.5 -59.5q0 -37 -23.5 -58.5t-58.5 -21.5h-829 q-35 0 -57.5 21.5t-22.5 58.5zM542 1709q-1 32 21 56l76 76q27 27 58.5 25t56.5 -27q23 -23 23.5 -57.5t-25.5 -57.5l-72 -71q-27 -27 -58.5 -25t-54.5 25q-24 24 -25 56z" />
<glyph unicode="&#xca;" horiz-adv-x="1134" d="M131 80v1382q0 35 22.5 59.5t57.5 24.5h829q35 0 58.5 -24.5t23.5 -59.5q0 -37 -23.5 -58.5t-58.5 -21.5h-747v-458h655q35 0 58.5 -23.5t23.5 -58.5t-23.5 -58.5t-58.5 -23.5h-655v-596h747q35 0 58.5 -24.5t23.5 -59.5q0 -37 -23.5 -58.5t-58.5 -21.5h-829 q-35 0 -57.5 21.5t-22.5 58.5zM358 1772.5q2 31.5 29 56.5q23 23 56.5 22.5t56.5 -24.5q4 -6 14 -17l22 -21l21 -20.5l14 -13.5q29 -27 26 -58.5t-26 -54.5q-25 -25 -56.5 -25.5t-55.5 19.5l-74 78q-29 27 -27 58.5zM693 1699q-1 32 20 58l78 74q27 27 58.5 24.5t55.5 -26.5 q23 -23 23 -56.5t-25 -56.5l-72 -74q-29 -27 -60.5 -24.5t-51.5 24.5q-25 25 -26 57z" />
<glyph unicode="&#xcb;" horiz-adv-x="1134" d="M131 80v1382q0 35 22.5 59.5t57.5 24.5h829q35 0 58.5 -24.5t23.5 -59.5q0 -37 -23.5 -58.5t-58.5 -21.5h-747v-458h655q35 0 58.5 -23.5t23.5 -58.5t-23.5 -58.5t-58.5 -23.5h-655v-596h747q35 0 58.5 -24.5t23.5 -59.5q0 -37 -23.5 -58.5t-58.5 -21.5h-829 q-35 0 -57.5 21.5t-22.5 58.5zM428 1708q0 37 21.5 58.5t58.5 21.5q35 0 58.5 -21.5t23.5 -58.5t-23.5 -58.5t-58.5 -21.5q-37 0 -58.5 21.5t-21.5 58.5zM741 1708q0 37 21.5 58.5t58.5 21.5q35 0 58.5 -21.5t23.5 -58.5t-23.5 -58.5t-58.5 -21.5q-37 0 -58.5 21.5 t-21.5 58.5z" />
<glyph unicode="&#xcc;" horiz-adv-x="438" d="M51 1772.5q2 31.5 27 56.5q23 23 57.5 22.5t57.5 -24.5q4 -6 14 -17l21 -21q11 -11 21.5 -20.5t14.5 -13.5q27 -27 25 -58.5t-25 -54.5q-25 -25 -56.5 -25.5t-55.5 19.5l-76 78q-27 27 -25 58.5zM121 80v1382q0 35 23.5 59.5t58.5 24.5t59.5 -24.5t24.5 -59.5v-1382 q0 -37 -24.5 -58.5t-59.5 -21.5t-58.5 21.5t-23.5 58.5z" />
<glyph unicode="&#xcd;" horiz-adv-x="438" d="M123 80v1382q0 35 23.5 59.5t58.5 24.5t58.5 -24.5t23.5 -59.5v-1382q0 -37 -23.5 -58.5t-58.5 -21.5t-58.5 21.5t-23.5 58.5zM124 1699q-1 32 19 58l78 74q27 27 58.5 24.5t56.5 -26.5q23 -23 22.5 -56.5t-24.5 -56.5l-72 -74q-27 -27 -58.5 -24.5t-53.5 24.5 q-25 25 -26 57z" />
<glyph unicode="&#xce;" horiz-adv-x="438" d="M-42 1772.5q1 31.5 28 56.5q23 23 56.5 22.5t55.5 -24.5q4 -6 15 -17l22 -21l23 -21q10 -9 14 -13q27 -27 25 -58.5t-25 -54.5q-27 -25 -58.5 -25.5t-56.5 19.5l-73 78q-27 27 -26 58.5zM123 80v1382q0 35 23.5 59.5t58.5 24.5t58.5 -24.5t23.5 -59.5v-1382 q0 -37 -23.5 -58.5t-58.5 -21.5t-58.5 21.5t-23.5 58.5zM232 1699q-1 32 22 58l76 74q27 27 58.5 24.5t55.5 -26.5q23 -23 24 -56.5t-24 -56.5l-73 -74q-27 -27 -58.5 -24.5t-52.5 24.5q-27 25 -28 57z" />
<glyph unicode="&#xcf;" horiz-adv-x="438" d="M25 1708q0 37 21.5 58.5t57.5 21.5q35 0 58.5 -21.5t23.5 -58.5t-23.5 -58.5t-58.5 -21.5q-37 0 -58 21.5t-21 58.5zM123 80v1382q0 35 23.5 59.5t58.5 24.5t58.5 -24.5t23.5 -59.5v-1382q0 -37 -23.5 -58.5t-58.5 -21.5t-58.5 21.5t-23.5 58.5zM219 1708q0 37 22.5 58.5 t59.5 21.5q35 0 58.5 -21.5t23.5 -58.5t-23.5 -58.5t-58.5 -21.5q-37 0 -59.5 21.5t-22.5 58.5z" />
<glyph unicode="&#xd1;" horiz-adv-x="1406" d="M133 84v1376q0 35 24.5 60.5t63.5 25.5h119q25 0 46.5 -11t31.5 -36l-2 2l334 -664l333 -663v1286q0 35 20.5 60.5t57.5 25.5q35 0 58.5 -25.5t23.5 -60.5v-1376q0 -35 -23.5 -59.5t-58.5 -24.5h-125q-47 0 -73 47l-333 662l-333 661v-1286q0 -35 -21.5 -59.5 t-54.5 -24.5q-39 0 -63.5 24.5t-24.5 59.5zM442 1722q0 59 36 106.5t91 67.5q37 10 68 11q23 0 42 -4.5t36 -10.5q29 -18 56.5 -50t39.5 -60q18 -29 51 -17q12 0 21 15l-2 -2q2 4 3 11t-3 15v-4q-16 33 -6 61.5t38 39.5q29 10 64 -1.5t49 -46.5q6 -33 6 -69.5t-16 -71.5h2 q-16 -35 -44 -59.5t-69 -34.5q-74 -23 -142.5 8t-96.5 107v-2q-4 12 -13 16q-4 2 -12 4t-16 -2q-12 -4 -19.5 -16.5t-3.5 -26.5q10 -29 -2 -59.5t-41 -40.5h4q-29 -12 -59.5 1t-46.5 44q-15 30 -15 71z" />
<glyph unicode="&#xd2;" horiz-adv-x="1351" d="M100 559v426q0 117 44 218.5t120 178t178.5 120.5t219.5 44q113 0 214 -42t183 -122q80 -80 121 -182t41 -215v-426q0 -115 -44 -217t-120 -178t-177.5 -120t-217.5 -44q-117 0 -219.5 44t-178.5 120t-120 178t-44 217zM266 559q0 -82 31 -153.5t85 -126t126 -85 t154 -30.5t154.5 30.5t125.5 85t85 126t32 153.5v426q0 78 -30 149.5t-89 129.5q-57 59 -129 88.5t-149 29.5q-82 0 -154 -31.5t-126 -85t-85 -126t-31 -154.5v-426zM537 1752q2 32 26 56q23 23 56.5 23t56.5 -25q4 -6 14 -16l23 -22l22 -20q10 -9 15 -13q27 -27 24.5 -58.5 t-24.5 -54.5q-25 -25 -56.5 -26t-58.5 20l-74 78q-26 26 -24 58z" />
<glyph unicode="&#xd3;" horiz-adv-x="1351" d="M100 559v426q0 117 44 218.5t120 178t178.5 120.5t219.5 44q113 0 214 -42t183 -122q80 -80 121 -182t41 -215v-426q0 -115 -44 -217t-120 -178t-177.5 -120t-217.5 -44q-117 0 -219.5 44t-178.5 120t-120 178t-44 217zM266 559q0 -82 31 -153.5t85 -126t126 -85 t154 -30.5t154.5 30.5t125.5 85t85 126t32 153.5v426q0 78 -30 149.5t-89 129.5q-57 59 -129 88.5t-149 29.5q-82 0 -154 -31.5t-126 -85t-85 -126t-31 -154.5v-426zM550 1678.5q-1 31.5 21 58.5l76 73q27 27 58.5 25t58.5 -27q23 -23 22.5 -56.5t-24.5 -55.5l-74 -74 q-27 -27 -58.5 -25t-51.5 25q-27 25 -28 56.5z" />
<glyph unicode="&#xd4;" horiz-adv-x="1351" d="M100 559v426q0 117 44 218.5t120 178t178.5 120.5t219.5 44q113 0 214 -42t183 -122q80 -80 121 -182t41 -215v-426q0 -115 -44 -217t-120 -178t-177.5 -120t-217.5 -44q-117 0 -219.5 44t-178.5 120t-120 178t-44 217zM266 559q0 -82 31 -153.5t85 -126t126 -85 t154 -30.5t154.5 30.5t125.5 85t85 126t32 153.5v426q0 78 -30 149.5t-89 129.5q-57 59 -129 88.5t-149 29.5q-82 0 -154 -31.5t-126 -85t-85 -126t-31 -154.5v-426zM379 1752q2 32 27 56q23 23 57.5 23t56.5 -25q4 -6 15 -16l21 -22q11 -11 21.5 -20t14.5 -13 q29 -27 25.5 -58.5t-25.5 -54.5q-25 -25 -56.5 -26t-56.5 20l-73 78q-29 26 -27 58zM714 1678.5q-1 31.5 19 58.5l76 73q29 27 60.5 25t56.5 -27q23 -23 22.5 -56.5t-24.5 -55.5l-72 -74q-29 -27 -60.5 -25t-52.5 25q-24 25 -25 56.5z" />
<glyph unicode="&#xd5;" horiz-adv-x="1351" d="M100 559v426q0 117 44 218.5t120 178t178.5 120.5t219.5 44q113 0 214 -42t183 -122q80 -80 121 -182t41 -215v-426q0 -115 -44 -217t-120 -178t-177.5 -120t-217.5 -44q-117 0 -219.5 44t-178.5 120t-120 178t-44 217zM266 559q0 -82 31 -153.5t85 -126t126 -85 t154 -30.5t154.5 30.5t125.5 85t85 126t32 153.5v426q0 78 -30 149.5t-89 129.5q-57 59 -129 88.5t-149 29.5q-82 0 -154 -31.5t-126 -85t-85 -126t-31 -154.5v-426zM375 1743q0 59 35.5 106t89.5 68q18 4 34.5 7t34.5 3q23 0 42.5 -4t35.5 -10q29 -18 55.5 -50t40.5 -61 q18 -29 52 -16q12 0 18 14l-2 -2q2 4 3 11.5t-3 15.5v-4q-14 33 -4 61.5t39 38.5t63.5 -1t48.5 -46q6 -33 6.5 -70t-18.5 -71h2q-29 -72 -110 -95q-37 -10 -74 -8t-69.5 17.5t-58.5 42t-38 63.5v-2q-4 10 -14 16q-2 2 -10.5 4.5t-16.5 -2.5q-33 -10 -22 -43 q8 -29 -3.5 -59.5t-39.5 -40.5h4q-29 -12 -61 1t-46 44t-14 72z" />
<glyph unicode="&#xd6;" horiz-adv-x="1361" d="M100 559v426q0 117 44 218.5t120 178t178.5 120.5t219.5 44q113 0 214 -42t183 -122q80 -80 121 -182t41 -215v-426q0 -115 -44 -217t-120 -178t-177.5 -120t-217.5 -44q-117 0 -219.5 44t-178.5 120t-120 178t-44 217zM266 559q0 -82 31 -153.5t85 -126t126 -85 t154 -30.5t154.5 30.5t125.5 85t85 126t32 153.5v426q0 78 -30 149.5t-89 129.5q-57 59 -129 88.5t-149 29.5q-82 0 -154 -31.5t-126 -85t-85 -126t-31 -154.5v-426zM270 1626q0 35 22.5 58.5t57.5 23.5t58.5 -23.5t23.5 -58.5t-23.5 -57.5t-58.5 -22.5t-57.5 22.5 t-22.5 57.5zM903 1626q0 35 22.5 58.5t57.5 23.5t58.5 -23.5t23.5 -58.5t-23.5 -57.5t-58.5 -22.5t-57.5 22.5t-22.5 57.5z" />
<glyph unicode="&#xd7;" horiz-adv-x="829" d="M89 416.5q-7 29.5 11 58.5l106 154l105 153l-108 153l-107 152q-14 29 -6 56.5t33 42.5q23 16 50.5 11t45.5 -32l89 -130l89 -130l89 130l89 130q18 27 45 30t56 -13l-4 4q31 -14 36 -44t-16 -61l-213 -297l215 -309q20 -29 13 -58.5t-29 -43.5q-27 -16 -54.5 -11 t-45.5 31l-91 131l-90 131l-91 -132l-89 -130l4 4q-16 -29 -46 -36t-52 10q-27 16 -34 45.5z" />
<glyph unicode="&#xd8;" horiz-adv-x="1351" d="M104 559v434q0 113 44.5 213.5t120 176t178 119.5t219.5 44q100 0 187 -31.5t163 -91.5q14 23 26 40l27 38q25 27 57.5 36t63.5 -7l2 -2q27 -20 32 -57t-12 -60l-42 -53l-42 -58q47 -68 72 -146.5t25 -160.5v-434q0 -117 -44 -218t-120 -177t-177.5 -120t-217.5 -44 q-100 0 -189.5 35t-161.5 88l-31 -44l-30 -46q-18 -25 -51 -33t-64 16q-25 16 -30 52t18 61l38 56l38 59q-99 139 -99 315zM266 559q0 -90 39 -166l311 448l312 447q-53 47 -122 71.5t-140 24.5q-82 0 -155 -31.5t-127 -86t-86 -125t-32 -148.5v-434zM406 258 q53 -45 119.5 -67.5t140.5 -22.5q82 0 153.5 30.5t124.5 84t85 124t32 152.5v434q0 78 -35 158l-311 -446z" />
<glyph unicode="&#xd9;" horiz-adv-x="1384" d="M117 559v903q0 35 23.5 59.5t58.5 24.5t58.5 -24.5t23.5 -59.5v-903q0 -82 31.5 -153.5t85 -126t126 -85t154.5 -30.5t154.5 30.5t127 85t86 126t31.5 153.5v903q0 35 21.5 59.5t58.5 24.5t58.5 -24.5t21.5 -59.5v-903q0 -115 -44 -217t-119 -178t-177 -120t-219 -44 t-218.5 44t-178 120t-120.5 178t-44 217zM537 1731.5q2 31.5 26 56.5q23 23 57.5 22.5t57.5 -24.5q4 -6 14 -17l22 -21l21 -20.5t15 -13.5q27 -27 24.5 -58.5t-24.5 -53.5q-25 -25 -56.5 -26t-56.5 19l-76 78q-26 27 -24 58.5z" />
<glyph unicode="&#xda;" horiz-adv-x="1384" d="M117 559v903q0 35 23.5 59.5t58.5 24.5t58.5 -24.5t23.5 -59.5v-903q0 -82 31.5 -153.5t85 -126t126 -85t154.5 -30.5t154.5 30.5t127 85t86 126t31.5 153.5v903q0 35 21.5 59.5t58.5 24.5t58.5 -24.5t21.5 -59.5v-903q0 -115 -44 -217t-119 -178t-177 -120t-219 -44 t-218.5 44t-178 120t-120.5 178t-44 217zM591 1658q-1 32 19 58l76 74q29 27 60.5 24.5t56.5 -26.5q23 -23 22.5 -56.5t-24.5 -56.5l-74 -73q-27 -27 -58.5 -25t-52.5 25q-24 24 -25 56z" />
<glyph unicode="&#xdb;" horiz-adv-x="1384" d="M117 559v903q0 35 23.5 59.5t58.5 24.5t58.5 -24.5t23.5 -59.5v-903q0 -82 31.5 -153.5t85 -126t126 -85t154.5 -30.5t154.5 30.5t127 85t86 126t31.5 153.5v903q0 35 21.5 59.5t58.5 24.5t58.5 -24.5t21.5 -59.5v-903q0 -115 -44 -217t-119 -178t-177 -120t-219 -44 t-218.5 44t-178 120t-120.5 178t-44 217zM399 1731.5q2 31.5 27 56.5q23 23 57.5 22.5t57.5 -24.5q4 -6 14 -17l22 -21l21 -20.5l14 -13.5q27 -27 25 -58.5t-25 -53.5q-25 -25 -56.5 -26t-55.5 19l-76 78q-27 27 -25 58.5zM734 1658q-1 32 20 58l75 74q27 27 59 24.5 t58 -26.5q23 -23 23 -56.5t-25 -56.5l-74 -73q-27 -27 -58.5 -25t-51.5 25q-25 24 -26 56z" />
<glyph unicode="&#xdc;" horiz-adv-x="1384" d="M117 559v903q0 35 23.5 59.5t58.5 24.5t58.5 -24.5t23.5 -59.5v-903q0 -82 31.5 -153.5t85 -126t126 -85t154.5 -30.5t154.5 30.5t127 85t86 126t31.5 153.5v903q0 35 21.5 59.5t58.5 24.5t58.5 -24.5t21.5 -59.5v-903q0 -115 -44 -217t-119 -178t-177 -120t-219 -44 t-218.5 44t-178 120t-120.5 178t-44 217zM449 1665q0 35 22.5 58.5t56.5 23.5q35 0 58.5 -23.5t23.5 -58.5t-23.5 -57.5t-58.5 -22.5t-57 22.5t-22 57.5zM762 1665q0 35 22.5 58.5t57.5 23.5t58.5 -23.5t23.5 -58.5t-23.5 -57.5t-58.5 -22.5t-57.5 22.5t-22.5 57.5z" />
<glyph unicode="&#xdd;" horiz-adv-x="1214" d="M41 1478.5q6 34.5 35 57.5q29 14 60.5 7t53.5 -36l406 -587l204 294l206 295q16 27 48.5 34t61.5 -9l2 -2q29 -20 33 -53t-12 -62l-459 -667v-670q0 -37 -24.5 -58.5t-59.5 -21.5t-58.5 21.5t-23.5 58.5v668q-6 6 -8 10l-225 328l-226 331l2 -2q-22 29 -16 63.5z M513 1658q-1 32 19 58l76 74q27 27 58.5 24.5t58.5 -26.5q23 -23 23 -56.5t-25 -56.5l-74 -73q-27 -27 -58.5 -25t-51.5 25q-25 24 -26 56z" />
<glyph unicode="&#xdf;" horiz-adv-x="1157" d="M127 82v1065q0 78 29.5 145.5t80 118.5t118 80t143.5 29q78 0 146.5 -29t118.5 -80t79.5 -118.5t29.5 -145.5v-19q0 -72 -24.5 -134t-67.5 -113q104 -41 168 -134.5t64 -209.5v-158q0 -80 -30 -149.5t-81 -120t-119.5 -80t-144.5 -29.5h-145q-29 0 -54.5 23.5t-25.5 58.5 q0 33 25.5 58.5t54.5 25.5h145q43 0 82 16.5t68.5 45t47 67.5t17.5 84v158q0 45 -17.5 83.5t-47 67.5t-68.5 46.5t-82 17.5h-139q-35 0 -58.5 24.5t-23.5 54.5q0 35 23.5 57.5t58.5 22.5q92 0 153.5 62.5t61.5 154.5v19q0 43 -16.5 82t-46 68.5t-68.5 46t-84 16.5t-83 -16.5 t-65.5 -46t-44 -68.5t-16.5 -82v-1065q0 -35 -23.5 -58.5t-58.5 -23.5q-31 0 -55.5 23.5t-24.5 58.5z" />
<glyph unicode="&#xe0;" d="M63 334q0 70 25 129t72 106t108.5 73t130.5 26h209q29 0 45 16h-2q14 14 15 47v27q0 43 -25 65q-23 25 -61 25h-365q-35 0 -58.5 22.5t-23.5 57.5q0 37 23.5 58.5t58.5 21.5h365q47 0 94 -18.5t82 -53.5q72 -76 71 -178v-678q0 -37 -21.5 -58.5t-55.5 -21.5q-59 0 -80 47 q-78 -47 -176 -47h-95q-70 0 -131 25.5t-106 70.5t-72 106.5t-27 131.5zM225 334q0 -37 13.5 -69t37 -55.5t55 -37.5t68.5 -14h95q35 0 66.5 13t53.5 38q51 49 52 125v178q-12 -4 -26.5 -5t-31.5 -1h-209q-74 0 -124 -49t-50 -123zM346 1284q2 31 25 53q25 25 55.5 26 t54.5 -20l74 -75q27 -27 25 -57.5t-27 -55.5q-23 -23 -56.5 -22.5t-56.5 24.5q-10 8 -35.5 35t-33.5 37q-27 24 -25 55z" />
<glyph unicode="&#xe1;" d="M63 334q0 70 25 129t72 106t108.5 73t130.5 26h209q29 0 45 16h-2q14 14 15 47v27q0 43 -25 65q-23 25 -61 25h-365q-35 0 -58.5 22.5t-23.5 57.5q0 37 23.5 58.5t58.5 21.5h365q47 0 94 -18.5t82 -53.5q72 -76 71 -178v-678q0 -37 -21.5 -58.5t-55.5 -21.5q-59 0 -80 47 q-78 -47 -176 -47h-95q-70 0 -131 25.5t-106 70.5t-72 106.5t-27 131.5zM225 334q0 -37 13.5 -69t37 -55.5t55 -37.5t68.5 -14h95q35 0 66.5 13t53.5 38q51 49 52 125v178q-12 -4 -26.5 -5t-31.5 -1h-209q-74 0 -124 -49t-50 -123zM390 1212.5q-1 30.5 20 55.5l73 73 q27 27 58.5 25t56.5 -27q23 -23 23 -55.5t-25 -54.5l-72 -72q-27 -27 -57.5 -24.5t-50.5 24.5q-25 25 -26 55.5z" />
<glyph unicode="&#xe2;" d="M37 334q0 70 25.5 130t70.5 105t105.5 72t130.5 27h213q25 0 42 17t17 46v27q0 39 -25.5 64.5t-64.5 25.5h-365q-35 0 -58.5 22.5t-23.5 57.5q0 37 24 58.5t58 21.5h365q51 0 96 -19.5t79 -53.5t54.5 -80t20.5 -97v-678q0 -37 -21.5 -58.5t-58.5 -21.5q-59 0 -76 49 q-84 -49 -180 -49h-96q-70 0 -130.5 25.5t-105.5 70.5t-70.5 106.5t-25.5 131.5zM168 1176.5q-6 31.5 18 60.5l94 114l93 113q16 14 31.5 20.5t27.5 6.5q33 0 62 -29l186 -227q18 -27 15 -58.5t-29 -52.5q-29 -25 -61 -17.5t-50 34.5l2 -2q-35 43 -61 71l-64 72l-62 -73 l-63 -70q-27 -27 -54.5 -33t-53.5 18q-25 21 -31 52.5zM199 334q0 -72 49 -124t121 -52h96q74 0 121 51h-2q53 53 53 125v180q-14 -4 -28.5 -6t-26.5 -2h-213q-72 0 -121 -50t-49 -122z" />
<glyph unicode="&#xe3;" horiz-adv-x="892" d="M37 334q0 70 25.5 130t70.5 105t105.5 72t130.5 27h213q25 0 42 17t17 46v27q0 39 -25.5 64.5t-64.5 25.5h-365q-35 0 -58.5 22.5t-23.5 57.5q0 37 24 58.5t58 21.5h365q51 0 96 -19.5t79 -53.5t54.5 -80t20.5 -97v-678q0 -37 -21.5 -58.5t-58.5 -21.5q-59 0 -76 49 q-84 -49 -180 -49h-96q-70 0 -130.5 25.5t-105.5 70.5t-70.5 106.5t-25.5 131.5zM147 1235q0 57 35 103t88 67q18 4 35 7t33 3q23 0 42 -4t36 -10q29 -16 54.5 -48t39.5 -61q6 -10 20.5 -16t28.5 0q12 2 21 14l-2 -2q2 4 3 11.5t-3 15.5v-4q-16 31 -6 59.5t38 38.5 q29 10 63 -1t48 -46q6 -33 6 -69t-16 -70q-29 -66 -109 -93q-37 -10 -72.5 -7t-67.5 17.5t-57.5 41t-37.5 63.5v-2q-2 8 -13 14q-4 2 -12 4.5t-14 -1.5q-14 -4 -21.5 -15.5t-3.5 -25.5q10 -29 -2 -59t-39 -40h2q-27 -12 -57.5 0.5t-44.5 42.5q-15 31 -15 72zM199 334 q0 -72 49 -124t121 -52h96q74 0 121 51h-2q53 53 53 125v180q-14 -4 -28.5 -6t-26.5 -2h-213q-72 0 -121 -50t-49 -122z" />
<glyph unicode="&#xe4;" horiz-adv-x="919" d="M37 334q0 70 25.5 130t70.5 105t105.5 72t130.5 27h213q25 0 42 17t17 46v27q0 39 -25.5 64.5t-64.5 25.5h-365q-35 0 -58.5 22.5t-23.5 57.5q0 37 24 58.5t58 21.5h365q51 0 96 -19.5t79 -53.5t54.5 -80t20.5 -97v-678q0 -37 -21.5 -58.5t-58.5 -21.5q-59 0 -76 49 q-84 -49 -180 -49h-96q-70 0 -130.5 25.5t-105.5 70.5t-70.5 106.5t-25.5 131.5zM135 1202q0 35 22.5 58.5t57.5 23.5t57.5 -23.5t22.5 -58.5q0 -33 -22.5 -55.5t-57.5 -22.5t-57.5 22.5t-22.5 55.5zM199 334q0 -72 49 -124t121 -52h96q74 0 121 51h-2q53 53 53 125v180 q-14 -4 -28.5 -6t-26.5 -2h-213q-72 0 -121 -50t-49 -122zM543 1202q0 35 22.5 58.5t55.5 23.5q35 0 58 -23.5t23 -58.5q0 -33 -23.5 -55.5t-57.5 -22.5q-33 0 -55.5 22.5t-22.5 55.5z" />
<glyph unicode="&#xe5;" horiz-adv-x="931" d="M47 334q0 70 26.5 130t71.5 105t105.5 72t130.5 27h209q27 0 44 17t17 46v27q0 39 -26.5 64.5t-61.5 25.5h-366q-37 0 -58.5 22.5t-21.5 57.5q0 37 21.5 58.5t58.5 21.5h366q51 0 96.5 -19.5t79 -53.5t54 -80t20.5 -97v-678q0 -37 -24.5 -58.5t-55.5 -21.5q-59 0 -80 47 q-78 -47 -176 -47h-96q-70 0 -130.5 25.5t-105.5 70.5t-71.5 106.5t-26.5 131.5zM209 334q0 -72 50 -124t122 -52h96q70 0 125 51q43 43 49 106v199q-27 -8 -61 -8h-209q-74 0 -123 -49t-49 -123zM291 1296q0 35 13 67t37 55.5t54.5 36.5t67.5 13t67.5 -13t54 -36.5 t37 -55.5t13.5 -67t-15.5 -67.5t-37.5 -61.5q-47 -43 -119 -43t-122 49t-50 123zM426 1296q0 -16 10 -27.5t27 -11.5q14 0 31 13l-7 -4q4 8 8.5 15t4.5 15q0 16 -10.5 26.5t-26.5 10.5t-26.5 -10.5t-10.5 -26.5z" />
<glyph unicode="&#xe6;" horiz-adv-x="1579" d="M57 334q0 70 26 131t71 107t105 72t128 26h277v88q0 41 -29 66.5t-64 25.5h-368q-33 0 -55.5 23.5t-22.5 52.5q0 37 22.5 62.5t55.5 25.5h368q66 0 123.5 -33t91.5 -84q51 53 122 85t157 32q160 0 276 -121q57 -59 89 -133t32 -152v-16q0 -37 -22.5 -62.5t-63.5 -23.5 q-82 0 -174 2q-78 0 -177 1t-204 1v-109q0 -49 17.5 -92t47 -74.5t70.5 -50t88 -18.5h259q35 0 59 -25.5t24 -58.5q0 -35 -24.5 -58.5t-58.5 -23.5h-259q-84 0 -153.5 33t-122.5 86q-4 4 -6 10t-6 10q-8 -10 -16.5 -19l-16.5 -18q-51 -47 -111.5 -74.5t-132.5 -27.5h-92 q-68 0 -128 26.5t-105 71.5t-71 105.5t-26 130.5zM217 334q0 -72 49 -120t121 -48h92q80 0 129 49h-2q25 27 41.5 58.5t16.5 60.5v176h-277q-72 0 -121 -51t-49 -125zM827 670q63 0 120 -1l112 -2l111 -2q56 -1 122 -1q-12 35 -30.5 65.5t-36.5 52.5v-2q-63 70 -160 70 q-86 0 -150.5 -51t-87.5 -129z" />
<glyph unicode="&#xe7;" horiz-adv-x="817" d="M80 406v208q0 82 31.5 155t87 127t129 86t157.5 32h177q37 0 57 -23.5t20 -54.5q0 -35 -20.5 -58.5t-56.5 -23.5h-177q-49 0 -94 -19.5t-78.5 -52t-53 -75.5t-19.5 -93v-208q0 -49 19.5 -94.5t53 -79t78.5 -53t94 -19.5h177q37 0 57 -24.5t20 -55.5q0 -33 -20.5 -56.5 t-56.5 -23.5h-152q-8 0 -8 -8q0 -2 6 -8h6q61 0 111.5 -46.5t50.5 -113.5q0 -33 -13.5 -61.5t-37 -50t-52 -34t-59.5 -12.5h-84q-33 0 -53.5 20.5t-20.5 51.5q0 33 20.5 54.5t53.5 21.5h84q6 0 6 10q0 8 -6 8q-35 0 -63.5 13.5t-51.5 33.5q-23 23 -33 53.5t-10 59.5v26 q-61 20 -111 58.5t-87 89.5t-57.5 111.5t-20.5 128.5z" />
<glyph unicode="&#xe8;" d="M96 399v209q0 82 30 154t89 129v-2q57 59 130 89t153 30q166 0 284 -119q55 -55 86 -128t31 -153v-94q0 -35 -23.5 -58.5t-58.5 -23.5h-561v-33q0 -49 19.5 -93t52 -76.5t77 -52t93.5 -19.5h211q35 0 56 -21.5t21 -56.5q0 -37 -21.5 -58.5t-55.5 -21.5h-211 q-84 0 -157 30.5t-127 85t-86 127t-32 156.5zM256 592h481v16q0 47 -18.5 91t-52.5 79q-68 70 -168 70t-170 -70q-35 -35 -53.5 -79t-18.5 -91v-16zM356 1301.5q2 31.5 27 56.5q23 23 56.5 22.5t56.5 -24.5q4 -6 14 -17l20 -21q10 -11 20.5 -20.5t14.5 -13.5 q27 -27 25 -57.5t-25 -52.5q-25 -25 -55.5 -26t-54.5 19l-74 76q-27 27 -25 58.5z" />
<glyph unicode="&#xe9;" d="M96 399v209q0 82 30 154t89 129v-2q57 59 130 89t153 30q166 0 284 -119q55 -55 86 -128t31 -153v-94q0 -35 -23.5 -58.5t-58.5 -23.5h-561v-33q0 -49 19.5 -93t52 -76.5t77 -52t93.5 -19.5h211q35 0 56 -21.5t21 -56.5q0 -37 -21.5 -58.5t-55.5 -21.5h-211 q-84 0 -157 30.5t-127 85t-86 127t-32 156.5zM256 592h481v16q0 47 -18.5 91t-52.5 79q-68 70 -168 70t-170 -70q-35 -35 -53.5 -79t-18.5 -91v-16zM431 1232q-1 32 20 56l75 72q25 27 56.5 24.5t56.5 -26.5q23 -23 23 -55.5t-25 -55.5l-72 -71q-27 -27 -57.5 -25t-50.5 25 q-25 24 -26 56z" />
<glyph unicode="&#xea;" d="M96 399v209q0 82 30 154t89 129v-2q57 59 130 89t153 30q166 0 284 -119q55 -55 86 -128t31 -153v-94q0 -35 -23.5 -58.5t-58.5 -23.5h-561v-33q0 -49 19.5 -93t52 -76.5t77 -52t93.5 -19.5h211q35 0 56 -21.5t21 -56.5q0 -37 -21.5 -58.5t-55.5 -21.5h-211 q-84 0 -157 30.5t-127 85t-86 127t-32 156.5zM242 1176.5q-6 31.5 18 60.5l93 114l93 113q16 14 32 20.5t28 6.5q33 0 61 -29l185 -227q20 -27 17 -58.5t-30 -52.5q-29 -25 -60.5 -17.5t-49.5 34.5l2 -2q-35 43 -62 71l-63 72l-63 -73l-62 -70q-27 -27 -54.5 -33t-54.5 18 q-24 21 -30 52.5zM256 592h481v16q0 47 -18.5 91t-52.5 79q-68 70 -168 70t-170 -70q-35 -35 -53.5 -79t-18.5 -91v-16z" />
<glyph unicode="&#xeb;" d="M96 399v209q0 82 30 154t89 129v-2q57 59 130 89t153 30q166 0 284 -119q55 -55 86 -128t31 -153v-94q0 -35 -23.5 -58.5t-58.5 -23.5h-561v-33q0 -49 19.5 -93t52 -76.5t77 -52t93.5 -19.5h211q35 0 56 -21.5t21 -56.5q0 -37 -21.5 -58.5t-55.5 -21.5h-211 q-84 0 -157 30.5t-127 85t-86 127t-32 156.5zM195 1202q0 35 22.5 58.5t54.5 23.5q35 0 58.5 -23.5t23.5 -58.5q0 -33 -23.5 -55.5t-58.5 -22.5q-33 0 -55 22.5t-22 55.5zM256 592h481v16q0 47 -18.5 91t-52.5 79q-68 70 -168 70t-170 -70q-35 -35 -53.5 -79t-18.5 -91v-16z M639 1202q0 35 22.5 58.5t57.5 23.5q33 0 56.5 -23.5t23.5 -58.5q0 -33 -23.5 -55.5t-56.5 -22.5q-35 0 -57.5 22.5t-22.5 55.5z" />
<glyph unicode="&#xec;" horiz-adv-x="366" d="M0 1301.5q2 31.5 27 56.5q23 23 56.5 22.5t55.5 -24.5q4 -6 15 -17l20 -21q10 -11 20.5 -20.5t14.5 -13.5q27 -27 24.5 -57.5t-24.5 -52.5q-25 -25 -55.5 -26t-55.5 19l-73 76q-27 27 -25 58.5zM88 82v846q0 37 21.5 58.5t58.5 21.5q35 0 57.5 -21.5t22.5 -58.5v-846 q0 -37 -22.5 -58.5t-57.5 -21.5q-80 0 -80 80z" />
<glyph unicode="&#xed;" horiz-adv-x="366" d="M92 82v846q0 37 21.5 58.5t56.5 21.5t58.5 -21.5t23.5 -58.5v-846q0 -37 -23.5 -58.5t-58.5 -21.5q-78 0 -78 80zM105 1212.5q-1 30.5 22 55.5l74 73q27 27 58.5 25t55.5 -27q23 -23 23 -55.5t-25 -54.5l-71 -72q-27 -27 -58.5 -24.5t-52.5 24.5q-25 25 -26 55.5z" />
<glyph unicode="&#xee;" horiz-adv-x="366" d="M-98 1156q-6 32 18 61l93 113l93 114q33 27 60 26q31 0 63 -28l185 -228q18 -27 15 -58.5t-30 -51.5q-29 -25 -60.5 -17.5t-47.5 33.5l2 -2l-64 72l-63 72l-63 -73l-62 -71q-27 -27 -53.5 -33t-55.5 19q-24 20 -30 52zM90 82v846q0 37 21.5 58.5t56.5 21.5t58.5 -21.5 t23.5 -58.5v-846q0 -37 -23.5 -58.5t-58.5 -21.5q-78 0 -78 80z" />
<glyph unicode="&#xef;" horiz-adv-x="366" d="M-8 1202q0 35 22.5 58.5t57.5 23.5q33 0 56.5 -23.5t23.5 -58.5q0 -33 -24 -55.5t-56 -22.5q-35 0 -57.5 22.5t-22.5 55.5zM90 82v846q0 37 21.5 58.5t56.5 21.5t58.5 -21.5t23.5 -58.5v-846q0 -37 -23.5 -58.5t-58.5 -21.5q-78 0 -78 80zM188 1202q0 35 22.5 58.5 t55.5 23.5q35 0 58.5 -23.5t23.5 -58.5q0 -33 -23.5 -55.5t-58.5 -22.5q-33 0 -55.5 22.5t-22.5 55.5z" />
<glyph unicode="&#xf1;" horiz-adv-x="1087" d="M129 508v170l2 6v242q0 37 21.5 62.5t58.5 25.5q23 0 43 -15.5t31 -40.5q39 25 84 40.5t98 15.5h127q68 0 129 -26.5t107.5 -73t73 -109t26.5 -131.5v-592q0 -35 -22.5 -58.5t-59.5 -23.5q-29 0 -53.5 23.5t-24.5 58.5v592q0 35 -13.5 66.5t-38 56t-56 39t-68.5 14.5 h-127q-35 0 -66.5 -13.5t-56.5 -36t-39 -53t-14 -63.5v-602q0 -35 -24.5 -58.5t-55.5 -23.5q-37 0 -58.5 23.5t-21.5 58.5zM240 1239q0 57 34.5 103.5t87.5 66.5q37 10 68 10q23 0 42.5 -4t35.5 -10q29 -18 54.5 -49t39.5 -60q6 -10 20.5 -16t28.5 0l11.5 4t9.5 10l-2 -2 q2 4 3 11.5t-3 13.5v-2q-16 31 -6 59.5t38 38.5q29 10 63 -1t48 -46q6 -33 6 -68.5t-18 -70.5h2q-29 -66 -109 -92q-37 -10 -72.5 -7.5t-67.5 17t-57.5 41t-37.5 63.5v-2q-4 8 -13 15q-4 2 -12 4t-16 -2q-12 -4 -19.5 -15.5t-3.5 -27.5q10 -27 -2 -57.5t-39 -41.5h2 q-27 -10 -57.5 2.5t-44.5 42.5q-8 16 -11 35t-3 37z" />
<glyph unicode="&#xf2;" horiz-adv-x="1024" d="M68 399v209q0 80 30.5 153t87.5 128q57 59 130 89t153 30q168 0 283 -119q57 -55 87.5 -128t30.5 -153v-209q0 -84 -31.5 -156.5t-86 -127t-127 -85t-156.5 -30.5t-156.5 30.5t-127 85t-86 127t-31.5 156.5zM229 399q0 -49 19.5 -93t51.5 -76.5t76 -52t93 -19.5t92 19.5 t77 52t53.5 76.5t19.5 93v209q0 96 -70 170q-72 70 -172 70t-170 -70q-70 -74 -70 -170v-209zM356 1301.5q2 31.5 27 56.5q23 23 55.5 22.5t55.5 -24.5q4 -6 14 -17l21 -21q11 -11 21.5 -20.5t14.5 -13.5q27 -27 25 -57.5t-25 -52.5q-25 -25 -56.5 -26t-55.5 19l-72 76 q-27 27 -25 58.5z" />
<glyph unicode="&#xf3;" horiz-adv-x="1024" d="M68 399v209q0 80 30.5 153t87.5 128q57 59 130 89t153 30q168 0 283 -119q57 -55 87.5 -128t30.5 -153v-209q0 -84 -31.5 -156.5t-86 -127t-127 -85t-156.5 -30.5t-156.5 30.5t-127 85t-86 127t-31.5 156.5zM229 399q0 -49 19.5 -93t51.5 -76.5t76 -52t93 -19.5t92 19.5 t77 52t53.5 76.5t19.5 93v209q0 96 -70 170q-72 70 -172 70t-170 -70q-70 -74 -70 -170v-209zM411 1212.5q-1 30.5 19 55.5l76 73q27 27 57.5 25t54.5 -27q23 -23 23 -55.5t-25 -54.5l-71 -72q-25 -27 -56.5 -24.5t-52.5 24.5q-24 25 -25 55.5z" />
<glyph unicode="&#xf4;" horiz-adv-x="1024" d="M68 399v209q0 80 30.5 153t87.5 128q57 59 130 89t153 30q168 0 283 -119q57 -55 87.5 -128t30.5 -153v-209q0 -84 -31.5 -156.5t-86 -127t-127 -85t-156.5 -30.5t-156.5 30.5t-127 85t-86 127t-31.5 156.5zM204 1156q-5 32 19 61l93 113l94 114q29 27 59 26q33 0 61 -28 l185 -228q18 -27 16 -58.5t-29 -51.5q-29 -25 -61.5 -17.5t-48.5 33.5l2 -2l-64 72q-27 29 -61 72l-63 -73l-62 -71q-27 -27 -54.5 -33t-56.5 19q-24 20 -29 52zM229 399q0 -49 19.5 -93t51.5 -76.5t76 -52t93 -19.5t92 19.5t77 52t53.5 76.5t19.5 93v209q0 96 -70 170 q-72 70 -172 70t-170 -70q-70 -74 -70 -170v-209z" />
<glyph unicode="&#xf5;" horiz-adv-x="1005" d="M68 399v209q0 80 30.5 153t87.5 128q57 59 130 89t153 30q168 0 283 -119q57 -55 87.5 -128t30.5 -153v-209q0 -84 -31.5 -156.5t-86 -127t-127 -85t-156.5 -30.5t-156.5 30.5t-127 85t-86 127t-31.5 156.5zM203 1214q0 57 34.5 103.5t88.5 66.5q16 4 32.5 7.5t34.5 3.5 q23 0 41.5 -4.5t34.5 -10.5q29 -16 55.5 -48t38.5 -60q8 -10 21.5 -16.5t29.5 -0.5q10 4 19 15l-2 -2q2 4 3 11t-3 15v-4q-14 31 -5 59.5t38 39.5q29 10 62.5 -1.5t49.5 -46.5q4 -33 4 -68.5t-16 -70.5h2q-29 -68 -111 -92q-37 -10 -72.5 -7t-67.5 17.5t-56.5 41t-36.5 63.5 v-2q-2 8 -14 14q-4 2 -11.5 4t-15.5 -2q-33 -10 -23 -41q8 -29 -3 -58.5t-40 -39.5h4q-29 -12 -58.5 0t-45.5 43q-8 16 -10 34.5t-2 36.5zM229 399q0 -49 19.5 -93t51.5 -76.5t76 -52t93 -19.5t92 19.5t77 52t53.5 76.5t19.5 93v209q0 96 -70 170q-72 70 -172 70t-170 -70 q-70 -74 -70 -170v-209z" />
<glyph unicode="&#xf6;" horiz-adv-x="968" d="M68 399v209q0 80 30.5 153t87.5 128q57 59 130 89t153 30q168 0 283 -119q57 -55 87.5 -128t30.5 -153v-209q0 -84 -31.5 -156.5t-86 -127t-127 -85t-156.5 -30.5t-156.5 30.5t-127 85t-86 127t-31.5 156.5zM168 1202q0 35 22.5 58.5t57.5 23.5q33 0 56.5 -23.5 t23.5 -58.5q0 -33 -23.5 -55.5t-56.5 -22.5q-35 0 -57.5 22.5t-22.5 55.5zM229 399q0 -49 19.5 -93t51.5 -76.5t76 -52t93 -19.5t92 19.5t77 52t53.5 76.5t19.5 93v209q0 96 -70 170q-72 70 -172 70t-170 -70q-70 -74 -70 -170v-209zM612 1202q0 35 22.5 58.5t57.5 23.5 t57.5 -23.5t22.5 -58.5q0 -33 -22.5 -55.5t-57.5 -22.5t-57.5 22.5t-22.5 55.5z" />
<glyph unicode="&#xf7;" horiz-adv-x="915" d="M13.5 53q-11.5 33 4.5 62v-2l351 680l350 680q14 35 45 42t59 -10q35 -16 43 -43.5t-2 -52.5l-702 -1368q-16 -29 -47 -39t-62 2q-28 16 -39.5 49z" />
<glyph unicode="&#xf8;" horiz-adv-x="1024" d="M100 399v209q0 86 32 160t86 128t128 86t160 32q63 0 118.5 -15.5t106.5 -54.5q8 10 16.5 19.5t12.5 17.5q23 23 53.5 29t60.5 -11q29 -25 31 -57.5t-14 -60.5l-43 -56q29 -47 45 -103t16 -114v-209q0 -80 -31.5 -151.5t-89.5 -130.5q-121 -117 -282 -117 q-63 0 -122.5 18.5t-107.5 53.5l-18 -24.5t-16 -22.5q-23 -18 -50.5 -23.5t-56.5 10.5q-25 25 -30 57.5t12 61.5l43 55q-29 47 -44.5 103.5t-15.5 109.5zM262 399q0 -29 10 -63l180 237l181 242q-55 37 -127 37q-49 0 -94 -19.5t-78 -52t-52.5 -77t-19.5 -95.5v-209z M373 199q31 -16 64.5 -27.5t68.5 -11.5q49 0 92 19.5t76 52t52 75.5t19 92v209q0 39 -8 70l-182 -239z" />
<glyph unicode="&#xf9;" horiz-adv-x="1058" d="M119 336v592q0 37 24.5 58.5t55.5 21.5q35 0 57.5 -21.5t22.5 -58.5v-592q0 -37 14 -68.5t38.5 -56.5t56.5 -39t69 -14h98q70 0 122 50t52 120v600q0 37 24.5 58.5t59.5 21.5q29 0 53.5 -21.5t24.5 -58.5v-848q0 -37 -24.5 -58.5t-53.5 -21.5q-59 0 -80 49 q-74 -49 -178 -49h-98q-70 0 -131.5 25.5t-107.5 71.5t-72.5 106.5t-26.5 132.5zM395 1301.5q2 31.5 27 56.5q23 23 55.5 22.5t54.5 -24.5q4 -6 15 -17l21 -21q11 -11 21.5 -20.5t14.5 -13.5q27 -27 25 -57.5t-25 -52.5q-25 -25 -55.5 -26t-54.5 19l-74 76q-27 27 -25 58.5z " />
<glyph unicode="&#xfa;" horiz-adv-x="1058" d="M119 336v592q0 37 24.5 58.5t55.5 21.5q35 0 57.5 -21.5t22.5 -58.5v-592q0 -37 14 -68.5t38.5 -56.5t56.5 -39t69 -14h98q70 0 122 50t52 120v600q0 37 24.5 58.5t59.5 21.5q29 0 53.5 -21.5t24.5 -58.5v-848q0 -37 -24.5 -58.5t-53.5 -21.5q-59 0 -80 49 q-74 -49 -178 -49h-98q-70 0 -131.5 25.5t-107.5 71.5t-72.5 106.5t-26.5 132.5zM431 1212.5q-1 30.5 20 55.5l75 73q27 27 57.5 25t55.5 -27q23 -23 23 -55.5t-25 -54.5l-72 -72q-25 -27 -56.5 -24.5t-51.5 24.5q-25 25 -26 55.5z" />
<glyph unicode="&#xfb;" horiz-adv-x="1058" d="M119 336v592q0 37 24.5 58.5t55.5 21.5q35 0 57.5 -21.5t22.5 -58.5v-592q0 -37 14 -68.5t38.5 -56.5t56.5 -39t69 -14h98q70 0 122 50t52 120v600q0 37 24.5 58.5t59.5 21.5q29 0 53.5 -21.5t24.5 -58.5v-848q0 -37 -24.5 -58.5t-53.5 -21.5q-59 0 -80 49 q-74 -49 -178 -49h-98q-70 0 -131.5 25.5t-107.5 71.5t-72.5 106.5t-26.5 132.5zM255 1156q-5 32 19 61l94 113l93 114q29 27 59 26q33 0 62 -28l184 -228q18 -27 16 -58.5t-28 -51.5q-29 -25 -62 -17.5t-49 33.5l2 -2l-63 72q-27 29 -62 72l-63 -73l-62 -71 q-27 -27 -54.5 -33t-55.5 19q-25 20 -30 52z" />
<glyph unicode="&#xfc;" horiz-adv-x="1058" d="M119 336v592q0 37 24.5 58.5t55.5 21.5q35 0 57.5 -21.5t22.5 -58.5v-592q0 -37 14 -68.5t38.5 -56.5t56.5 -39t69 -14h98q70 0 122 50t52 120v600q0 37 24.5 58.5t59.5 21.5q29 0 53.5 -21.5t24.5 -58.5v-848q0 -37 -24.5 -58.5t-53.5 -21.5q-59 0 -80 49 q-74 -49 -178 -49h-98q-70 0 -131.5 25.5t-107.5 71.5t-72.5 106.5t-26.5 132.5zM217 1202q0 35 22.5 58.5t57.5 23.5q33 0 56.5 -23.5t23.5 -58.5q0 -33 -23.5 -55.5t-56.5 -22.5q-35 0 -57.5 22.5t-22.5 55.5zM631 1202q0 35 22.5 58.5t57.5 23.5t57.5 -23.5t22.5 -58.5 q0 -33 -23 -55.5t-57 -22.5q-35 0 -57.5 22.5t-22.5 55.5z" />
<glyph unicode="&#xfd;" horiz-adv-x="1003" d="M84 954.5q12 28.5 41 49.5q29 16 57.5 2.5t44.5 -43.5l295 -596l141 297l140 299q16 31 46 43t62 -5q29 -16 38 -46.5t-1 -61.5l-559 -1190q-16 -29 -48 -41t-60 4h2q-35 16 -43.5 47t6.5 72l190 401l-175 353l-173 352q-16 35 -4 63.5zM470 1212.5q-1 30.5 19 55.5 l76 73q27 27 57.5 25t55.5 -27q23 -23 22.5 -55.5t-24.5 -54.5l-72 -72q-27 -27 -57.5 -24.5t-50.5 24.5q-25 25 -26 55.5z" />
<glyph unicode="&#xff;" horiz-adv-x="1003" d="M84 954.5q12 28.5 41 49.5q29 16 57.5 2.5t44.5 -43.5l295 -596l141 297l140 299q16 31 46 43t62 -5q29 -16 38 -46.5t-1 -61.5l-559 -1190q-16 -29 -48 -41t-60 4h2q-35 16 -43.5 47t6.5 72l190 401l-175 353l-173 352q-16 35 -4 63.5zM297 1202q0 35 22.5 58.5 t57.5 23.5q33 0 56.5 -23.5t23.5 -58.5q0 -33 -23.5 -55.5t-56.5 -22.5q-35 0 -57.5 22.5t-22.5 55.5zM610 1202q0 35 22.5 58.5t57.5 23.5q33 0 56.5 -23.5t23.5 -58.5q0 -33 -23.5 -55.5t-56.5 -22.5q-35 0 -57.5 22.5t-22.5 55.5z" />
<glyph unicode="&#x152;" horiz-adv-x="2486" d="M1483 80v1382q0 35 22.5 59.5t57.5 24.5h829q35 0 58.5 -24.5t23.5 -59.5q0 -37 -23.5 -58.5t-58.5 -21.5h-747v-458h655q35 0 58.5 -23.5t23.5 -58.5t-23.5 -58.5t-58.5 -23.5h-655v-596h747q35 0 58.5 -24.5t23.5 -59.5q0 -37 -23.5 -58.5t-58.5 -21.5h-829 q-35 0 -57.5 21.5t-22.5 58.5zM100 559v426q0 117 44 218.5t120 178t178.5 120.5t219.5 44q113 0 214 -42t183 -122q80 -80 121 -182t41 -215v-426q0 -115 -44 -217t-120 -178t-177.5 -120t-217.5 -44q-117 0 -219.5 44t-178.5 120t-120 178t-44 217zM266 559 q0 -82 31 -153.5t85 -126t126 -85t154 -30.5t154.5 30.5t125.5 85t85 126t32 153.5v426q0 78 -30 149.5t-89 129.5q-57 59 -129 88.5t-149 29.5q-82 0 -154 -31.5t-126 -85t-85 -126t-31 -154.5v-426z" />
<glyph unicode="&#x153;" horiz-adv-x="2009" d="M1120 399v209q0 82 30 154t89 129v-2q57 59 130 89t153 30q166 0 284 -119q55 -55 86 -128t31 -153v-94q0 -35 -23.5 -58.5t-58.5 -23.5h-561v-33q0 -49 19.5 -93t52 -76.5t77 -52t93.5 -19.5h211q35 0 56 -21.5t21 -56.5q0 -37 -21.5 -58.5t-55.5 -21.5h-211 q-84 0 -157 30.5t-127 85t-86 127t-32 156.5zM1280 592h481v16q0 47 -18.5 91t-52.5 79q-68 70 -168 70t-170 -70q-35 -35 -53.5 -79t-18.5 -91v-16zM96 399v209q0 80 31 153t86 128h-2q55 59 130 89t155 30q82 0 154.5 -30t129.5 -89q55 -55 86 -128t31 -153v-209 q0 -84 -31.5 -156.5t-86 -127t-128 -85t-155.5 -30.5q-84 0 -157 30.5t-127 85t-85 127t-31 156.5zM256 399q0 -49 19.5 -93t51 -76.5t75.5 -52t94 -19.5q49 0 93 19.5t77.5 52t53 76.5t19.5 93v209q0 47 -18.5 91t-52.5 79q-70 70 -172 70q-94 0 -170 -70q-70 -74 -70 -170 v-209z" />
<glyph unicode="&#x178;" horiz-adv-x="1214" d="M41 1478.5q6 34.5 35 57.5q29 14 60.5 7t53.5 -36l406 -587l204 294l206 295q16 27 48.5 34t61.5 -9l2 -2q29 -20 33 -53t-12 -62l-459 -667v-670q0 -37 -24.5 -58.5t-59.5 -21.5t-58.5 21.5t-23.5 58.5v668q-6 6 -8 10l-225 328l-226 331l2 -2q-22 29 -16 63.5z M387 1667q0 37 21.5 58.5t58.5 21.5q35 0 59.5 -21.5t24.5 -58.5t-24.5 -58.5t-59.5 -21.5q-37 0 -58.5 21.5t-21.5 58.5zM700 1667q0 37 21.5 58.5t58.5 21.5q35 0 59.5 -21.5t24.5 -58.5t-24.5 -58.5t-59.5 -21.5q-37 0 -58.5 21.5t-21.5 58.5z" />
<glyph unicode="&#x2c6;" horiz-adv-x="571" d="M23.5 1193q-5.5 32 19.5 60l93 113l93 115q29 27 60 26q33 0 61 -28l185 -228q18 -27 16 -58.5t-29 -51.5q-29 -25 -61.5 -18t-48.5 34l2 -2q-35 43 -62.5 71.5t-62.5 71.5l-64 -72l-61 -71q-27 -27 -54.5 -33t-56.5 19q-24 20 -29.5 52z" />
<glyph unicode="&#x2000;" />
<glyph unicode="&#x2001;" horiz-adv-x="1972" />
<glyph unicode="&#x2002;" />
<glyph unicode="&#x2003;" horiz-adv-x="1972" />
<glyph unicode="&#x2004;" horiz-adv-x="657" />
<glyph unicode="&#x2005;" horiz-adv-x="491" />
<glyph unicode="&#x2006;" horiz-adv-x="327" />
<glyph unicode="&#x2007;" horiz-adv-x="327" />
<glyph unicode="&#x2008;" horiz-adv-x="245" />
<glyph unicode="&#x2009;" horiz-adv-x="393" />
<glyph unicode="&#x200a;" horiz-adv-x="108" />
<glyph unicode="&#x2010;" horiz-adv-x="866" d="M76 758q0 37 24.5 58.5t59.5 21.5h510q29 0 53.5 -21.5t24.5 -58.5q0 -35 -25 -56.5t-53 -21.5h-510q-35 0 -59.5 21.5t-24.5 56.5z" />
<glyph unicode="&#x2011;" horiz-adv-x="866" d="M76 758q0 37 24.5 58.5t59.5 21.5h510q29 0 53.5 -21.5t24.5 -58.5q0 -35 -25 -56.5t-53 -21.5h-510q-35 0 -59.5 21.5t-24.5 56.5z" />
<glyph unicode="&#x2012;" horiz-adv-x="866" d="M76 758q0 37 24.5 58.5t59.5 21.5h510q29 0 53.5 -21.5t24.5 -58.5q0 -35 -25 -56.5t-53 -21.5h-510q-35 0 -59.5 21.5t-24.5 56.5z" />
<glyph unicode="&#x2013;" horiz-adv-x="827" d="M68 758q0 37 24.5 58.5t59.5 21.5h510q29 0 53 -21.5t24 -58.5q0 -35 -24.5 -56.5t-52.5 -21.5h-510q-35 0 -59.5 21.5t-24.5 56.5z" />
<glyph unicode="&#x2014;" horiz-adv-x="968" d="M123 758q0 37 23.5 58.5t58.5 21.5h510q29 0 54.5 -21.5t25.5 -58.5q0 -35 -26 -56.5t-54 -21.5h-510q-35 0 -58.5 21.5t-23.5 56.5z" />
<glyph unicode="&#x2018;" horiz-adv-x="542" d="M137 1702q2 31 27 55q23 23 55.5 23t54.5 -25l37 -36q27 -26 35 -36q27 -27 25 -56.5t-25 -51.5q-25 -25 -55.5 -26t-54.5 20l-74 76q-27 26 -25 57z" />
<glyph unicode="&#x2019;" horiz-adv-x="239" d="M55 1313v143q0 29 20.5 46.5t45.5 17.5q29 0 49 -17.5t20 -46.5v-143q0 -31 -20 -48.5t-49 -17.5q-25 0 -45.5 17.5t-20.5 48.5z" />
<glyph unicode="&#x201c;" horiz-adv-x="329" d="M23 1313v143q0 29 20 46.5t45 17.5q29 0 49.5 -17.5t20.5 -46.5v-143q0 -31 -20.5 -48.5t-49.5 -17.5q-25 0 -45 17.5t-20 48.5zM158 1313v143q0 29 20.5 46.5t44.5 17.5q29 0 48.5 -17.5t19.5 -46.5v-143q0 -31 -19.5 -48.5t-48.5 -17.5q-25 0 -45 17.5t-20 48.5z" />
<glyph unicode="&#x201d;" horiz-adv-x="329" d="M23 1313v143q0 29 20 46.5t45 17.5q29 0 49.5 -17.5t20.5 -46.5v-143q0 -31 -20.5 -48.5t-49.5 -17.5q-25 0 -45 17.5t-20 48.5zM158 1313v143q0 29 20.5 46.5t44.5 17.5q29 0 48.5 -17.5t19.5 -46.5v-143q0 -31 -19.5 -48.5t-48.5 -17.5q-25 0 -45 17.5t-20 48.5z" />
<glyph unicode="&#x2022;" horiz-adv-x="698" d="M119 752q0 72 51 122t123 50q35 0 65.5 -13.5t54 -37t37 -54.5t13.5 -67q0 -35 -13.5 -64t-33.5 -55q-53 -53 -123 -53q-76 0 -127 51q-47 53 -47 121zM252 752q0 -10 16 -31q4 -4 25 -4q14 0 24 8q10 10 11 27q0 16 -10.5 26t-24.5 10q-16 0 -28.5 -10t-12.5 -26z" />
<glyph unicode="&#x2026;" horiz-adv-x="1013" d="M746 72q0 37 24.5 61.5t63.5 24.5q37 0 62.5 -24.5t25.5 -61.5q0 -39 -25.5 -63.5t-62.5 -24.5q-39 0 -63.5 24.5t-24.5 63.5zM408 72q0 37 24.5 61.5t63.5 24.5q37 0 62.5 -24.5t25.5 -61.5q0 -39 -25.5 -63.5t-62.5 -24.5q-39 0 -63.5 24.5t-24.5 63.5zM70 72 q0 37 24.5 61.5t63.5 24.5q37 0 62.5 -24.5t25.5 -61.5q0 -39 -25.5 -63.5t-62.5 -24.5q-39 0 -63.5 24.5t-24.5 63.5z" />
<glyph unicode="&#x202f;" horiz-adv-x="393" />
<glyph unicode="&#x2039;" horiz-adv-x="620" d="M10 758q0 35 29 61l410 340q27 18 59.5 15t52.5 -29h-2q27 -29 18.5 -60.5t-32.5 -48.5l2 2l-85 -71l-79 -69l-80 -69l-86 -71l165 -140l165 -139q27 -27 33 -54.5t-19 -55.5q-20 -25 -52 -29t-60 18l-206 170l-206 170q-27 33 -27 60z" />
<glyph unicode="&#x203a;" horiz-adv-x="708" d="M101 423q3 30 30 56l330 279l-165 139l-165 141l2 -2q-27 20 -32 52t18 59q25 25 54.5 27t55.5 -15l414 -342q10 -10 17.5 -26.5t7.5 -32.5q0 -29 -21 -58l-416 -342q-25 -23 -56.5 -18.5t-55.5 29.5q-21 24 -18 54z" />
<glyph unicode="&#x2044;" horiz-adv-x="905" d="M821 1507q35 -16 44 -43.5t-1 -54.5l-702 -1368q-16 -29 -47 -39t-62 2q-29 16 -40 49t5 62v-2l352 682l351 682q20 29 48 36t50 -4z" />
<glyph unicode="&#x205f;" horiz-adv-x="491" />
<glyph unicode="&#x20ac;" horiz-adv-x="1124" d="M100 662q0 31 23.5 51t54.5 20h45v64h-45q-31 0 -54.5 20.5t-23.5 52.5q0 33 23.5 54.5t54.5 21.5l47 4q6 86 41 160t92.5 128t133 85t161.5 31t163 -34t138 -93q25 -23 27 -58.5t-25 -58.5v2q-23 -23 -57.5 -22.5t-54.5 22.5v-2q-39 39 -87 61.5t-104 22.5 q-51 0 -97 -19.5t-82 -52t-59.5 -79t-29.5 -97.5h250q31 0 52.5 -21.5t21.5 -54.5t-21.5 -53t-52.5 -20h-252v-64h252q31 0 52.5 -20.5t21.5 -50.5q0 -31 -21.5 -53.5t-52.5 -22.5q-72 -2 -125 -3t-125 -3q4 -51 27.5 -95.5t60.5 -76t83 -50t97 -18.5t99.5 20.5t85.5 55.5 q25 20 58.5 19t55.5 -21q20 -23 20.5 -56.5t-20.5 -54.5q-61 -59 -137 -92t-162 -33t-161.5 31t-133 86t-92.5 130t-41 161h-47q-31 0 -54.5 22.5t-23.5 53.5z" />
<glyph unicode="&#x2122;" horiz-adv-x="915" d="M80 1460q0 55 49 56h229q20 0 37 -13.5t17 -42.5t-16.5 -42t-37.5 -13h-59v-279q0 -55 -55 -55q-23 0 -38.5 14.5t-15.5 40.5v279h-61q-49 0 -49 55zM453 1126v334q0 29 19.5 42.5t35.5 13.5h35q12 0 32 -15l78 -108l35 53l33 51q10 6 23.5 12.5t23.5 6.5h33 q16 0 35.5 -13.5t19.5 -42.5v-334q0 -27 -19.5 -41t-35.5 -14q-55 0 -56 55v195l-24 -40l-23 -36h-14q-16 -6 -29 -6q-6 0 -10 2l-10 4h-14l-58 84v-203q0 -27 -16.5 -41t-38.5 -14q-16 0 -35.5 14t-19.5 41z" />
<glyph unicode="&#xe000;" horiz-adv-x="1000" d="M0 1000h1000v-1000h-1000v1000z" />
<glyph unicode="&#xfb01;" horiz-adv-x="1116" d="M840 82v846q0 37 21.5 58.5t56.5 21.5t58.5 -21.5t23.5 -58.5v-846q0 -37 -23.5 -58.5t-58.5 -21.5q-78 0 -78 80zM840 1147q0 37 21.5 58.5t56.5 21.5t58.5 -21.5t23.5 -58.5q0 -35 -23.5 -58.5t-58.5 -23.5t-56.5 23.5t-21.5 58.5zM121 80v1102q0 70 26.5 131t72.5 106 t107.5 72t131.5 27h209q35 0 58.5 -21.5t23.5 -58.5q0 -35 -24 -56.5t-58 -21.5h-209q-37 0 -69 -14.5t-56.5 -39t-38.5 -56t-14 -68.5v-174h333q35 0 57.5 -21.5t22.5 -58.5q0 -35 -22.5 -57.5t-57.5 -22.5h-333v-768q0 -37 -21.5 -58.5t-56.5 -21.5t-58.5 21.5t-23.5 58.5 z" />
<glyph unicode="&#xfb02;" horiz-adv-x="1187" d="M871 82v1358q0 37 23.5 58.5t60.5 21.5q29 0 53.5 -21.5t24.5 -58.5v-1358q0 -37 -25 -58.5t-53 -21.5q-37 0 -60.5 21.5t-23.5 58.5zM121 80v1102q0 70 26.5 131t72.5 106t107.5 72t131.5 27h209q35 0 58.5 -21.5t23.5 -58.5q0 -35 -24 -56.5t-58 -21.5h-209 q-37 0 -69 -14.5t-56.5 -39t-38.5 -56t-14 -68.5v-174h333q35 0 57.5 -21.5t22.5 -58.5q0 -35 -22.5 -57.5t-57.5 -22.5h-333v-768q0 -37 -21.5 -58.5t-56.5 -21.5t-58.5 21.5t-23.5 58.5z" />
<glyph unicode="&#xfb03;" horiz-adv-x="1865" d="M1589 82v846q0 37 21.5 58.5t56.5 21.5t58.5 -21.5t23.5 -58.5v-846q0 -37 -23.5 -58.5t-58.5 -21.5q-78 0 -78 80zM1589 1147q0 37 21.5 58.5t56.5 21.5t58.5 -21.5t23.5 -58.5q0 -35 -23.5 -58.5t-58.5 -23.5t-56.5 23.5t-21.5 58.5zM871 80v1102q0 70 26.5 131 t72.5 106t107.5 72t131.5 27h209q35 0 58.5 -21.5t23.5 -58.5q0 -35 -24 -56.5t-58 -21.5h-209q-37 0 -69 -14.5t-56.5 -39t-38.5 -56t-14 -68.5v-174h333q35 0 57.5 -21.5t22.5 -58.5q0 -35 -22.5 -57.5t-57.5 -22.5h-333v-768q0 -37 -21.5 -58.5t-56.5 -21.5t-58.5 21.5 t-23.5 58.5zM121 80v1102q0 70 26.5 131t72.5 106t107.5 72t131.5 27h209q35 0 58.5 -21.5t23.5 -58.5q0 -35 -24 -56.5t-58 -21.5h-209q-37 0 -69 -14.5t-56.5 -39t-38.5 -56t-14 -68.5v-174h333q35 0 57.5 -21.5t22.5 -58.5q0 -35 -22.5 -57.5t-57.5 -22.5h-333v-768 q0 -37 -21.5 -58.5t-56.5 -21.5t-58.5 21.5t-23.5 58.5z" />
<glyph unicode="&#xfb04;" horiz-adv-x="1937" d="M1620 82v1358q0 37 23.5 58.5t60.5 21.5q29 0 53.5 -21.5t24.5 -58.5v-1358q0 -37 -25 -58.5t-53 -21.5q-37 0 -60.5 21.5t-23.5 58.5zM871 80v1102q0 70 26.5 131t72.5 106t107.5 72t131.5 27h209q35 0 58.5 -21.5t23.5 -58.5q0 -35 -24 -56.5t-58 -21.5h-209 q-37 0 -69 -14.5t-56.5 -39t-38.5 -56t-14 -68.5v-174h333q35 0 57.5 -21.5t22.5 -58.5q0 -35 -22.5 -57.5t-57.5 -22.5h-333v-768q0 -37 -21.5 -58.5t-56.5 -21.5t-58.5 21.5t-23.5 58.5zM121 80v1102q0 70 26.5 131t72.5 106t107.5 72t131.5 27h209q35 0 58.5 -21.5 t23.5 -58.5q0 -35 -24 -56.5t-58 -21.5h-209q-37 0 -69 -14.5t-56.5 -39t-38.5 -56t-14 -68.5v-174h333q35 0 57.5 -21.5t22.5 -58.5q0 -35 -22.5 -57.5t-57.5 -22.5h-333v-768q0 -37 -21.5 -58.5t-56.5 -21.5t-58.5 21.5t-23.5 58.5z" />
</font>
</defs>
</svg>
