<?xml version="1.0" standalone="no"?>
<!DOCTYPE svg PUBLIC "-//W3C//DTD SVG 1.1//EN" "http://www.w3.org/Graphics/SVG/1.1/DTD/svg11.dtd" >
<svg xmlns="http://www.w3.org/2000/svg">
<metadata></metadata>
<defs>
<font id="exodemibold" horiz-adv-x="1120" >
<font-face units-per-em="2048" ascent="1638" descent="-410" />
<missing-glyph horiz-adv-x="512" />
<glyph unicode="&#xfb01;" horiz-adv-x="1269" d="M35 893v160l182 34v92q0 186 117.5 307.5t312.5 123.5q81 1 229.5 -19t214.5 -44v-145l-367 16q-50 2 -94 -7.5t-85.5 -34.5t-66 -77t-24.5 -127v-85l722 -20v-1067h-239v893h-483v-893h-237v893h-182z" />
<glyph unicode="&#xfb02;" horiz-adv-x="1474" d="M35 893v160l183 34v99q0 207 96.5 315.5t280.5 108.5l589 -2v-1192q0 -81 11.5 -125.5t31.5 -63t60 -32.5q139 -43 153 -43v-152h-216q-148 0 -212.5 87t-64.5 300v1030l-303 1q-98 0 -143.5 -49t-45.5 -183v-99h265v-194h-267v-893h-238v893h-180z" />
<glyph horiz-adv-x="0" />
<glyph unicode="&#xd;" horiz-adv-x="1732" />
<glyph unicode=" "  horiz-adv-x="512" />
<glyph unicode="&#x09;" horiz-adv-x="512" />
<glyph unicode="&#xa0;" horiz-adv-x="512" />
<glyph unicode="!" horiz-adv-x="555" d="M148 47v160q0 51 49 51h156q23 0 35 -14t12 -37v-160q0 -47 -47 -47h-156q-22 0 -35.5 12.5t-13.5 34.5zM150 1497h250l-24 -1096h-204z" />
<glyph unicode="&#x22;" horiz-adv-x="860" d="M148 1362v137h231v-137l-20 -275h-188zM484 1362v137h231v-137l-20 -275h-190z" />
<glyph unicode="#" horiz-adv-x="1449" d="M35 446l24 164h318l46 281h-319l27 164h321l76 444h164l-76 -444h284l74 444h163l-73 -444h355l-26 -164h-356l-46 -283h356l-23 -164h-365l-76 -444h-164l76 444l-285 2l-75 -446h-164l76 446h-312zM540 610l287 -2l46 283h-287z" />
<glyph unicode="$" horiz-adv-x="1169" d="M95 1001v132q1 85 21.5 150t55 107t86 69t108 38.5t126.5 13.5v177h154v-181q191 -13 375 -51v-186q-448 20 -470 20q-55 2 -90.5 -3t-67 -22t-46 -53.5t-14.5 -93.5v-96q0 -91 47.5 -127.5t133.5 -36.5h219q343 0 343 -381v-115q0 -91 -25 -160t-65 -110.5t-97.5 -67 t-116 -34t-126.5 -6.5v-168h-154v174q-201 14 -349 51v182q13 0 109 -5t192 -8t181 -3q214 0 214 149v102q0 79 -33 120.5t-116 41.5h-216q-95 0 -166.5 27t-111 66.5t-63.5 94t-31 99.5t-7 94z" />
<glyph unicode="%" horiz-adv-x="1964" d="M73 978v258q0 136 60.5 199.5t210.5 63.5h207q146 0 207 -64t61 -199v-258q0 -136 -61 -199.5t-211 -63.5h-207q-146 0 -206.5 64t-60.5 199zM249 999q0 -62 22.5 -85t86.5 -23h171q72 0 92.5 23t20.5 85v215q0 65 -23.5 87t-85.5 22h-171q-69 0 -91 -22.5t-22 -86.5 v-215zM440 0l908 1499h184l-904 -1499h-188zM1147 268v258q0 136 60.5 199.5t210.5 63.5h207q146 0 207 -64t61 -199v-258q0 -136 -61 -199.5t-211 -63.5h-207q-146 0 -206.5 64t-60.5 199zM1323 289q0 -62 22.5 -85t86.5 -23h171q72 0 93 23t21 85v216q0 65 -24 86.5 t-86 21.5h-170q-69 0 -91.5 -22t-22.5 -86v-216z" />
<glyph unicode="&#x26;" horiz-adv-x="1359" d="M60 373.5q-11 108.5 33.5 206t134.5 174.5l154 133l-114 160q-78 112 -66 209t76.5 163t145.5 76q86 11 165.5 12t152.5 -8.5t122.5 -19t118.5 -25.5v-170h-366q-125 0 -147.5 -50t61.5 -168l395 -538l243 237l81 -95l-116 -220l-79 -90l265 -360h-281l-153 208 l-138 -126q-75 -68 -187.5 -87t-229 25t-188.5 148q-72 97 -83 205.5zM340 301q34 -43 81.5 -67.5t103.5 -19.5t102 49l125 119l-248 329l-125 -107q-167 -141 -39 -303z" />
<glyph unicode="'" horiz-adv-x="428" d="M95 1362v137h240v-137l-20 -275h-197z" />
<glyph unicode="(" horiz-adv-x="741" d="M130 668q0 128 19 257.5t49.5 234t68 201.5t74.5 168t67.5 124.5t49.5 80.5l19 27h230q-14 -21 -37 -60t-81 -160t-103 -243t-81.5 -296t-36.5 -334q0 -175 35 -352.5t84.5 -306t99.5 -231.5t85 -156l35 -52h-230q-7 8 -19.5 24t-48.5 70.5t-69 116t-73 159.5t-69 202 t-48.5 243t-19.5 283z" />
<glyph unicode=")" horiz-adv-x="741" d="M35 -430q7 10 19 28.5t47.5 79.5t67.5 127t71 167.5t67 204t47.5 233t19.5 258.5q0 160 -35 331t-84.5 301.5t-99.5 238t-85 165.5l-35 57h230q7 -10 19.5 -28t48.5 -79t69 -126t73 -166t69 -203.5t48.5 -232.5t19.5 -258q0 -144 -19 -282.5t-49.5 -244.5t-68 -200.5 t-74.5 -161t-67.5 -115t-49.5 -71.5l-19 -23h-230z" />
<glyph unicode="*" horiz-adv-x="884" d="M87 1159v104l284 52l11 -166zM212 851l49 278l162 -39l-114 -270zM347 1472l100 37l143 -247l-153 -66zM403 963l91 139l228 -185l-58 -83zM499 1169l245 160l55 -88l-194 -198z" />
<glyph unicode="+" horiz-adv-x="1013" d="M81 625v209h319v321h209v-321h324v-209h-324v-322h-209v322h-319z" />
<glyph unicode="," horiz-adv-x="540" d="M148 51v154q0 55 51 55h147q49 0 49 -55v-228q0 -60 -24.5 -98.5t-59 -50t-69.5 -14.5t-60 2l-24 4v87q22 -1 35.5 4t19 15.5t7 18t1.5 18.5v37h-22q-23 0 -37 13t-14 38z" />
<glyph unicode="-" horiz-adv-x="724" d="M41 489v209h643v-209h-643z" />
<glyph unicode="." horiz-adv-x="544" d="M148 47v160q0 51 49 51h151q51 0 51 -51v-160q0 -47 -51 -47h-151q-22 0 -35.5 12.5t-13.5 34.5z" />
<glyph unicode="/" horiz-adv-x="890" d="M35 -147l575 1724h248l-576 -1724h-247z" />
<glyph unicode="0" horiz-adv-x="1300" d="M121 353v786q0 173 100.5 266.5t267.5 93.5h336q96 0 167 -28t111 -78t58.5 -111.5t18.5 -135.5v-793q0 -178 -93.5 -265.5t-262.5 -87.5h-336q-169 0 -268 88t-99 265zM359 383q0 -46 15 -79t41 -50t54 -24t61 -7h248q83 0 123.5 38.5t40.5 120.5v735q0 159 -158 159 h-259q-89 0 -127.5 -47t-38.5 -112v-734z" />
<glyph unicode="1" horiz-adv-x="751" d="M69 1169v159l310 171h236v-1499h-238v1255z" />
<glyph unicode="2" horiz-adv-x="1210" d="M69 1294v177q318 49 623 49q110 0 195.5 -37t136 -101t76 -143.5t25.5 -170.5q0 -74 -28 -155t-70.5 -151t-104 -145t-117 -130.5t-121.5 -113.5t-104.5 -89t-79.5 -61h625v-223h-1041v211q75 51 162.5 116t206 165.5t211 195.5t157.5 199t65 182q0 225 -253 225h-564z " />
<glyph unicode="3" horiz-adv-x="1202" d="M52 1280v166q84 29 197.5 43.5t224 14.5t237.5 -1q168 -3 265.5 -99t97.5 -253v-120q0 -230 -148 -286q148 -73 148 -302v-99q0 -175 -95.5 -266.5t-282.5 -91.5h-75.5h-79.5t-70.5 0.5t-76.5 2.5t-67.5 4.5t-72.5 7t-62.5 10t-68 14t-59.5 18.5l2 168h553q55 0 88 4.5 t65 19.5t46.5 48t14.5 86v85q0 96 -51.5 135t-149.5 43l-441 14v191l441 20q107 5 156.5 44t49.5 123v98q0 85 -57.5 121.5t-148.5 36.5h-580z" />
<glyph unicode="4" horiz-adv-x="1257" d="M35 459l578 1040h266l-504 -920h448v371l69 156h169v-527h162v-186l-162 -46v-343h-238v343h-719z" />
<glyph unicode="5" horiz-adv-x="1226" d="M132 41v184h594q162 0 162 162v169q0 25 -2 43.5t-10.5 43t-24 39.5t-45.5 26t-72 11h-237q-61 0 -100.5 -32.5t-39.5 -99.5h-222l45 912h894v-223h-668l-18 -395q46 43 145 54q41 5 88.5 5t103.5 -2.5t62 -2.5q172 -5 255.5 -102.5t83.5 -259.5v-219q0 -81 -23.5 -145.5 t-60.5 -104t-86 -65.5t-97 -36.5t-97 -10.5q-209 0 -323 8t-307 41z" />
<glyph unicode="6" horiz-adv-x="1255" d="M113 786q0 157 20 282t53.5 204.5t80 133t95 76.5t103.5 26q297 16 640 -41v-179h-541q-205 0 -213 -433q223 43 459 43q103 0 173.5 -25.5t106.5 -74.5t50 -104t14 -130v-239q0 -327 -351 -327h-297q-74 0 -130.5 20t-108 72.5t-84 139.5t-51.5 227t-19 329zM351 682 q0 -50 1.5 -89.5t6.5 -89.5t13.5 -87.5t24.5 -76t37.5 -63t53.5 -40t72 -15.5h210q77 0 112.5 28t35.5 113v181q0 79 -36 109t-108 30h-423z" />
<glyph unicode="7" horiz-adv-x="1128" d="M52 1276v223h956l70 -120l-517 -1379h-265l485 1276h-729z" />
<glyph unicode="8" horiz-adv-x="1286" d="M130 333v169q0 95 45.5 151t120.5 75q-166 67 -166 294v133q0 82 19 144t52 101.5t81.5 64t102 34.5t120.5 10h306q174 0 260 -84t86 -271v-118q0 -19 -2 -41.5t-11 -55.5t-24.5 -60t-46 -50t-70.5 -30q43 -8 75 -39.5t48 -74.5t23.5 -84t7.5 -78v-185q0 -338 -348 -338 h-304q-75 0 -135.5 14t-99 34t-66.5 52t-41.5 59.5t-21.5 64.5t-9.5 58.5t-1.5 50.5zM368 352q0 -69 39.5 -102.5t129.5 -33.5h230q69 0 110.5 35t41.5 101v168q0 69 -39.5 105.5t-106.5 36.5h-251q-154 0 -154 -142v-168zM368 1012q0 -79 45 -111.5t109 -32.5h249 q87 0 117.5 40t30.5 104v112q0 95 -36.5 132t-113.5 37h-232q-45 0 -72.5 -5t-51.5 -22t-34.5 -51.5t-10.5 -90.5v-112z" />
<glyph unicode="9" horiz-adv-x="1255" d="M104 942v239q0 327 351 327h298q74 0 130.5 -20t108 -72.5t84 -140t51.5 -227.5t19 -329q0 -157 -20.5 -282t-53.5 -204.5t-79.5 -132.5t-95.5 -76t-104 -26q-159 -8 -333 2t-307 38v180h542q205 0 213 433q-223 -43 -460 -43q-103 0 -173.5 25.5t-106.5 74.5t-50 104 t-14 130zM340 963q0 -79 36.5 -109t108.5 -30h423q0 50 -1.5 89.5t-6.5 89.5t-13.5 87.5t-24.5 76t-37.5 63t-53.5 40t-72 15.5h-211q-77 0 -112.5 -28t-35.5 -113v-181z" />
<glyph unicode=":" horiz-adv-x="544" d="M148 47v160q0 51 49 51h151q51 0 51 -51v-160q0 -47 -51 -47h-151q-22 0 -35.5 12.5t-13.5 34.5zM148 878v160q0 51 49 51h151q51 0 51 -51v-160q0 -47 -51 -47h-151q-22 0 -35.5 12.5t-13.5 34.5z" />
<glyph unicode=";" horiz-adv-x="548" d="M148 51v154q0 24 14 39.5t37 15.5h147q24 0 36.5 -15.5t12.5 -39.5v-228q0 -60 -24.5 -98.5t-59 -50t-69.5 -14.5t-60 2l-24 4v87q22 -1 35.5 4t19 15.5t7 18t1.5 18.5v37h-22q-22 0 -36.5 15t-14.5 36zM150 879v160q0 51 49 51h152q51 0 51 -51v-160q0 -47 -51 -47h-152 q-22 0 -35.5 12.5t-13.5 34.5z" />
<glyph unicode="&#x3c;" horiz-adv-x="940" d="M87 609v228l768 309v-228l-500 -194l500 -213v-231z" />
<glyph unicode="=" horiz-adv-x="956" d="M41 398v209h874v-209h-874zM41 834v208h874v-208h-874z" />
<glyph unicode="&#x3e;" horiz-adv-x="940" d="M87 280v231l500 213l-500 194v228l768 -309v-228z" />
<glyph unicode="?" horiz-adv-x="1110" d="M35 1288v177q123 21 190 30.5t171 16t216 1.5q91 0 164 -21.5t121.5 -58.5t81.5 -88t47.5 -107t14.5 -118v-171q0 -203 -123.5 -292t-352.5 -65v-193h-204v375h255q83 3 136.5 46t53.5 132v145q0 101 -58.5 146t-186.5 45h-526zM337 47v160q0 51 50 51h154q48 0 48 -51 v-160q0 -47 -48 -47h-154q-22 0 -36 13t-14 34z" />
<glyph unicode="@" horiz-adv-x="1759" d="M113 14v656q0 49 7 93.5t32 99t66 93.5t115.5 66t173.5 27h411q342 0 342 -309v-740h-160l-35 124l-18 -14q-18 -15 -49 -36t-70.5 -42t-92.5 -35.5t-105 -14.5q-120 -2 -191.5 75t-70.5 186v94q0 133 75 206t211 73h306q2 112 0 113q0 70 -33.5 94t-109.5 24h-410 q-42 0 -72 -6t-59.5 -24t-45 -56.5t-15.5 -97.5v-634q0 -53 12.5 -93t31.5 -63.5t45.5 -37.5t51 -19t51.5 -5h694q120 0 165 53t45 165v977q0 115 -56.5 176t-153.5 61h-828v146q99 20 269 38t342 17h217q87 -1 159.5 -26t130 -76t90 -136.5t32.5 -199.5v-977 q0 -206 -97.5 -314t-307.5 -108h-701q-177 0 -285.5 101.5t-108.5 305.5zM676 305q0 -33 1 -35q0 -34 30.5 -61t75.5 -26q136 -1 277 97v194l-282 -25q-103 -11 -101 -110q-1 -1 -1 -34z" />
<glyph unicode="A" horiz-adv-x="1400" d="M78 0l522 1499h263l501 -1499h-260l-115 363h-529l-118 -363h-264zM527 580h400l-195 595z" />
<glyph unicode="B" horiz-adv-x="1230" d="M139 0v1499h603q110 0 192.5 -33.5t128.5 -91t68 -125.5t22 -146q0 -119 -48.5 -210t-150.5 -115q91 -18 154 -109t63 -237q0 -432 -425 -432h-607zM378 216h361q194 0 194 226q0 103 -47.5 170.5t-146.5 67.5h-361v-464zM378 889h353q91 0 139 51t48 148 q0 57 -16.5 97.5t-45.5 60.5t-59 28.5t-66 8.5h-353v-394z" />
<glyph unicode="C" horiz-adv-x="1175" d="M95 754q0 151 13.5 264t47.5 210t91 158.5t145.5 95.5t209.5 34q274 0 514 -62v-187l-16 1q-16 2 -44 4t-64 5t-80 5.5t-88 4.5t-91.5 3.5t-87.5 1.5q-73 0 -120 -11.5t-87 -43.5t-61 -93.5t-32.5 -156.5t-11.5 -237q0 -133 14 -227t48.5 -167t96.5 -109t153 -36 q96 0 213.5 4t187.5 8l70 4v-187q-202 -52 -483 -52h-31q-139 1 -238.5 54.5t-157.5 156.5t-84.5 239t-26.5 316z" />
<glyph unicode="D" horiz-adv-x="1351" d="M139 0v1499h608q524 0 524 -756q0 -157 -29.5 -287.5t-90.5 -234.5t-164 -162.5t-240 -58.5h-608zM376 220h356q79 0 138 38.5t94.5 110t52.5 165t17 211.5q0 153 -20 259t-61 166.5t-94 86.5t-127 26h-356v-1063z" />
<glyph unicode="E" horiz-adv-x="1161" d="M135 279v925q0 69 18 122.5t47.5 86t69.5 53t80 27.5q35 6 75 6h11q571 -22 655 -33v-194h-612q-38 0 -61 -9t-32 -28.5t-11 -34t-2 -42.5v-298l629 -21v-194l-629 -20v-298q0 -23 4.5 -40.5t10 -28.5t18 -18.5t19.5 -11t24.5 -5.5t24.5 -2h26h591v-192 q-33 -4 -191.5 -13t-300.5 -16l-142 -6q-15 -1 -29 -1q-29 0 -56 3q-40 4 -85.5 21t-77.5 47t-53 85t-21 130z" />
<glyph unicode="F" horiz-adv-x="1161" d="M135 0v1201q0 82 25.5 143t69.5 94t96 48q45 13 96 13h14q571 -22 655 -33v-194h-612q-38 0 -61 -9t-32 -28.5t-11 -34t-2 -42.5v-298l629 -21v-194l-629 -20v-625h-238z" />
<glyph unicode="G" horiz-adv-x="1257" d="M95 758q0 97 5.5 176.5t19.5 159.5t37.5 141.5t61 116t87.5 89.5t119.5 55t155.5 20q284 0 556 -63v-185q-2 0 -35.5 3t-87 8t-116.5 9.5t-137.5 7.5t-136.5 3q-73 0 -123.5 -20.5t-83.5 -59.5t-51.5 -107.5t-25.5 -152t-7 -205.5q0 -128 8 -215t27 -151.5t52.5 -101 t81 -53.5t117.5 -18q65 0 141.5 23.5t121.5 47.5l44 23v320h-259v152q140 52 357 52q53 0 139 -7v-826h-172l-61 100q-138 -105 -347 -110h-20q-59 0 -109 10q-58 11 -103.5 32.5t-82.5 56t-63 75t-46 93.5t-32 107.5t-19.5 122t-10 131t-2.5 140.5z" />
<glyph unicode="H" horiz-adv-x="1304" d="M139 0v1499h237v-662h588v662h238v-1499h-238v613h-588v-613h-237z" />
<glyph unicode="I" horiz-adv-x="479" d="M139 0v1499h237v-1499h-237z" />
<glyph unicode="J" horiz-adv-x="731" d="M61 46l5 182q103 -14 157 -14q17 0 29 1q101 11 128 106q11 41 11 96v1082h238v-1161q0 -46 -3 -80t-12.5 -79.5t-33 -82t-59.5 -59.5q-77 -48 -210 -48h-21q-148 4 -229 57z" />
<glyph unicode="K" horiz-adv-x="1259" d="M139 0v1499h230v-643h138l413 643h280l-480 -750l480 -749h-280l-413 640h-136v-640h-232z" />
<glyph unicode="L" horiz-adv-x="1118" d="M139 280v1219h237v-1169q0 -31 8.5 -52.5t18.5 -32t31 -16t32.5 -6t36.5 -0.5h555v-223h-619q-63 0 -112.5 12t-94 41t-69 86.5t-24.5 140.5z" />
<glyph unicode="M" horiz-adv-x="1699" d="M95 0l120 1499h330l304 -1105l298 1105h328l132 -1499h-236l-96 1082l-293 -1082h-261l-304 1082l-86 -1082h-236z" />
<glyph unicode="N" horiz-adv-x="1388" d="M139 0v1499h241l669 -1059v1059h238v-1499h-238l-671 1052v-1052h-239z" />
<glyph unicode="O" horiz-adv-x="1376" d="M113 739q0 115 9.5 211t25.5 169.5t43 131t56.5 98.5t71 70t82 46.5t94 27.5t102 13t111.5 3q85 0 145.5 -5.5t126.5 -24.5t111 -52t87.5 -90t67.5 -138t40 -196.5t15 -263.5q0 -140 -14 -249.5t-38.5 -188t-65.5 -134.5t-86 -89.5t-110.5 -53t-129 -26t-149.5 -6.5 q-60 0 -106.5 2.5t-97 9.5t-88 20.5t-77 34t-67.5 51t-55.5 71.5t-45 95.5t-31.5 122.5t-20.5 153.5t-6.5 186.5zM351 739q0 -116 6.5 -196t24 -140.5t42 -95.5t67.5 -56.5t92.5 -28.5t124.5 -7q71 0 120 8t91 29.5t67.5 58t44 96t25.5 140t7 192.5q0 78 -3 141.5t-10.5 115 t-16.5 91t-24.5 69.5t-30.5 51.5t-39 36t-45.5 23t-54.5 12.5t-61 5.5t-70 1.5q-71 0 -111 -4t-87 -20.5t-71.5 -51.5t-47.5 -95t-31.5 -152.5t-8.5 -223.5z" />
<glyph unicode="P" horiz-adv-x="1216" d="M111 0v1499h635q60 0 110 -9t105 -38t93 -77t62.5 -132t24.5 -196q0 -93 -13.5 -167t-35.5 -123.5t-55.5 -85t-66 -54.5t-75 -29.5t-75.5 -12.5q-22 -1 -48 -1h-26q-59 1 -224 18.5t-173 22.5v-615h-238zM349 791h382q39 0 67.5 10t53 36.5t37 78t12.5 129.5 q-1 75 -17 125t-43 72.5t-52.5 30.5t-57.5 8h-382v-490z" />
<glyph unicode="Q" horiz-adv-x="1376" d="M113 739q0 116 9 211.5t25 169t42.5 131t55.5 98.5t70.5 70t81.5 46.5t94 27.5t102.5 13t112.5 3q65 0 114 -3t103.5 -13t94.5 -27.5t81.5 -46.5t70.5 -70t55 -98.5t42 -131t25 -169t9 -211.5q0 -123 -10 -222t-31.5 -174t-49 -131t-69 -94.5t-84.5 -63.5t-102.5 -38.5 t-116.5 -18.5t-132 -5q-60 0 -106.5 2.5t-97 9.5t-88 20.5t-76.5 34t-67 51t-55 71.5t-45 95.5t-31.5 122.5t-20 153t-6.5 187zM351 739q0 -116 6.5 -196t23.5 -140.5t41.5 -95.5t67 -56.5t92 -28.5t124.5 -7q71 0 120 8t91.5 29.5t68 58t44 96t26 140t7.5 192.5 q0 78 -3 141.5t-10.5 115t-16.5 91t-25 69.5t-31 51.5t-39.5 36t-46 23t-54.5 12.5t-61 5.5t-70 1.5q-71 0 -111 -4t-87 -21t-71 -51.5t-46.5 -94.5t-31 -152.5t-8.5 -223.5zM627 -68h142q66 -78 183 -78q68 0 154 27v-207q-56 -15 -118 -16h-4q-61 0 -120 16 q-62 17 -112.5 48.5t-84.5 86t-40 123.5z" />
<glyph unicode="R" horiz-adv-x="1232" d="M111 0v1499h650q386 0 386 -461q0 -61 -6.5 -114t-15.5 -91.5t-26 -71.5t-30 -54t-36 -40t-35.5 -28t-37 -18.5t-32.5 -11.5t-28 -8l296 -601h-265l-273 584l-309 28v-612h-238zM350 805h393q42 0 67.5 6.5t50 29t35.5 71t11 126.5q0 74 -12.5 124t-36.5 75t-51 34.5 t-64 9.5h-393v-476z" />
<glyph unicode="S" horiz-adv-x="1204" d="M113 1001v132q0 108 30.5 183.5t87.5 116.5t127 59t161 19h26q119 0 273 -16q172 -18 256 -39v-188q-87 7 -272 13.5t-233 6.5h-33h-41q-29 -2 -59 -11t-47 -27.5t-27.5 -51t-10.5 -80.5v-96q0 -53 10.5 -86t34.5 -50t54 -22.5t79 -5.5h257q82 0 145 -24t99.5 -61.5 t59 -90t30.5 -101.5t8 -104v-115q0 -93 -24.5 -162.5t-62.5 -110t-95 -65t-111.5 -32.5t-121.5 -8q-151 0 -303 15.5t-251 41.5v188q225 -22 518 -22q26 0 46 1.5t46.5 6t46 15t37.5 26t27.5 41.5t9.5 59v102q0 80 -32 121t-115 41h-251q-100 0 -173 26.5t-111.5 64.5 t-61 94t-28 99.5t-5.5 96.5z" />
<glyph unicode="T" horiz-adv-x="1204" d="M74 1276v223h1084v-223h-429v-1276h-238v1276h-417z" />
<glyph unicode="U" horiz-adv-x="1370" d="M139 655v844h237v-844q0 -87 7 -153t19 -113.5t34.5 -79.5t46 -51t62 -29t74 -13t89.5 -3t92 5.5t77.5 21t64.5 46t46 78.5t30.5 121t9.5 170v844h239v-844q0 -108 -12 -197t-29.5 -154t-49.5 -115.5t-60 -83.5t-74 -55.5t-78 -34t-86 -17.5t-84.5 -7t-85.5 -1 q-164 0 -230 12q-166 29 -245 163q-94 158 -94 490z" />
<glyph unicode="V" horiz-adv-x="1392" d="M78 1499h254l371 -1171l393 1171h254l-515 -1499h-267z" />
<glyph unicode="W" horiz-adv-x="2009" d="M78 1499h254l370 -1157l306 1157h258l-117 -420l251 -745l314 1165h254l-433 -1499h-267l-230 669l-203 -669h-267z" />
<glyph unicode="X" horiz-adv-x="1280" d="M78 1499h262l315 -554l320 554h262l-448 -745l438 -754h-262l-310 551l-309 -551h-262l435 754z" />
<glyph unicode="Y" horiz-adv-x="1325" d="M78 1499h259l327 -743l359 743h259l-502 -1010v-489h-238v489z" />
<glyph unicode="Z" horiz-adv-x="1144" d="M61 0v223l732 1053h-732v223h1024v-223l-711 -1053h711v-223h-1024z" />
<glyph unicode="[" horiz-adv-x="673" d="M148 -42v1393q0 56 8 106t30 100t57 86t93 58.5t133 22.5h171v-208h-128q-60 0 -93.5 -48t-33.5 -139v-1364q0 -91 33.5 -138.5t93.5 -47.5h128v-209h-171q-68 0 -121.5 18t-87.5 50t-57 69.5t-34.5 84t-16 85t-4.5 81.5z" />
<glyph unicode="\" horiz-adv-x="890" d="M35 1577h247l576 -1724h-248z" />
<glyph unicode="]" horiz-adv-x="673" d="M35 -221h128q59 0 92.5 47.5t33.5 138.5v1364q0 91 -33.5 139t-92.5 48h-128v208h171q75 0 133 -22.5t93 -58.5t57 -86t30 -100t8 -106v-1393q0 -43 -4.5 -81.5t-16 -85t-34.5 -84t-57 -69.5t-87.5 -50t-121.5 -18h-171v209z" />
<glyph unicode="^" horiz-adv-x="792" d="M87 1087l227 274h188l204 -274h-174l-128 132l-141 -132h-176zM502 1361z" />
<glyph unicode="_" horiz-adv-x="1380" d="M41 -2v209h1298v-209h-1298z" />
<glyph unicode="`" horiz-adv-x="495" d="M35 1367h230l198 -280h-170z" />
<glyph unicode="a" horiz-adv-x="1062" d="M69 270v111q0 128 76 208.5t226 80.5q184 -1 276 -1t92 1q1 46 1 69.5t-1 24.5q0 84 -37.5 115t-115.5 31q-137 0 -481 -24v153q194 67 508 69h4q360 0 360 -337v-771h-185l-53 124q-6 -11 -60 -42q-53 -31 -145 -63q-89 -31 -165 -31h-5q-136 3 -215.5 83t-79.5 199z M307 300q0 -64 28.5 -87.5t79.5 -23.5q60 0 141 23t132 46l51 23v233l-332 -25q-100 -9 -100 -118v-71z" />
<glyph unicode="b" horiz-adv-x="1136" d="M104 0v1608h235v-579q79 34 181 54.5t176 20.5t131.5 -19t96 -57.5t64.5 -86.5t39.5 -115t19 -134t5.5 -153q0 -551 -356 -551q-91 0 -194.5 41t-160.5 85l-47 -114h-190zM341 276q148 -77 308 -77q83 0 124.5 82t41.5 265q0 144 -20.5 225t-54.5 108t-91 27 q-166 0 -308 -46v-584z" />
<glyph unicode="c" horiz-adv-x="1015" d="M87 545q0 134 17.5 233t47.5 160t77 97t98 49.5t118 13.5q101 0 238.5 -14.5t249.5 -46.5v-153q-228 12 -410 12q-29 0 -46 -1.5t-39 -6t-35 -14.5t-27.5 -27.5t-22.5 -44t-15.5 -63t-10.5 -87t-3 -114.5q0 -145 20 -220t60.5 -101t118.5 -26q84 0 190 5.5t171 10.5l64 5 v-156q-30 -13 -63.5 -23t-58 -16.5t-66 -11.5t-59 -7.5t-67.5 -4t-59.5 -2t-67.5 -1t-62 -0.5q-65 0 -115.5 13.5t-97.5 50t-78 97.5t-49 160.5t-18 233.5z" />
<glyph unicode="d" horiz-adv-x="1136" d="M87 539q0 87 5.5 154.5t19 134.5t39.5 115t64.5 85.5t96 56.5t131.5 19q73 0 174.5 -20.5t180.5 -54.5v579h237v-1608h-190l-47 114q-57 -44 -160.5 -85t-194.5 -41q-81 0 -143.5 28.5t-102 77t-65 120t-35.5 150.5t-10 175zM324 546q0 -183 41.5 -265t124.5 -82 q160 0 308 77v584q-142 46 -308 46q-57 0 -91 -27t-54.5 -108t-20.5 -225z" />
<glyph unicode="e" horiz-adv-x="1075" d="M87 549q0 119 11 205t37 147.5t60.5 99t91.5 59t120 29t155 7.5q70 0 117.5 -3t98 -12t83 -26t62.5 -46t46.5 -70.5t26.5 -100t10 -135.5q0 -135 -73 -199.5t-222 -64.5h-387q0 -81 11.5 -130.5t41 -75.5t67 -34t101.5 -8h49.5h49.5h43t45 0.5t40 1.5t43 2t39.5 2.5 t44 3.5t41.5 5l46 6v-165q-73 -25 -177 -38.5t-179 -16t-185 -2.5q-204 0 -281 124t-77 435zM324 625h340q105 0 105 88q0 53 -5 84t-15.5 53.5t-34.5 32.5t-55.5 14t-85.5 4q-33 0 -51.5 -0.5t-43.5 -2.5t-39 -5.5t-32 -10.5t-27 -17.5t-20.5 -25.5t-16.5 -35t-10.5 -46.5 t-7 -59t-1.5 -73.5z" />
<glyph unicode="f" horiz-adv-x="823" d="M35 893v160l180 34v203q0 52 7 95t26.5 86t51.5 72.5t86 48t125 18.5q145 0 279 -49v-145l-216 2q-36 1 -59 -7.5t-35.5 -19.5t-18.5 -37.5t-7 -46t-1 -60.5v-160h267v-194h-267v-893h-238v893h-180z" />
<glyph unicode="g" horiz-adv-x="1142" d="M82 219q0 64 31 116t93 69q-62 39 -90.5 123t-28.5 178q0 193 94.5 290t273.5 97h654v-151l-138 -37l12 -24q12 -25 15 -35t10.5 -36t10 -56.5t2.5 -69.5q0 -48 -8 -95t-32.5 -100t-62.5 -92t-104.5 -65t-152.5 -26h-276q-84 0 -84 -53q0 -60 84 -60h371q142 0 221 -79 t79 -229v-122q0 -47 -8 -88.5t-30.5 -84.5t-58 -73t-95 -49.5t-136.5 -19.5h-307q-151 0 -243 80t-92 235v152l90 111q-43 27 -68.5 78.5t-25.5 115.5zM324 0v-215q0 -44 12 -73t35 -41.5t45 -17t54 -4.5h220q76 0 103 34t27 98v94q0 59 -25.5 86.5t-93.5 28.5h-288 q-21 0 -43.5 2.5t-33.5 5.5zM324 705q0 -198 153 -198h146q46 0 79.5 16.5t50.5 46t24 62.5q6 30 6 63v10q-3 98 -38 141.5t-124 43.5h-137q-48 0 -81.5 -15t-49.5 -43t-22.5 -58t-6.5 -69z" />
<glyph unicode="h" d="M104 0v1604h237v-636q110 71 157 93q99 45 209 45q87 0 152 -29.5t103 -82t56 -117t18 -141.5v-736h-237v739q0 85 -38.5 125t-105.5 40q-94 0 -158 -22.5t-155 -79.5v-802h-238z" />
<glyph unicode="i" horiz-adv-x="442" d="M87 1254v156q0 51 49 51h174q22 0 34 -14t12 -37v-156q0 -47 -46 -47h-174q-22 0 -35.5 12.5t-13.5 34.5zM101 0v1087h237v-1087h-237z" />
<glyph unicode="j" horiz-adv-x="477" d="M104 1254v156q0 51 49 51h174q23 0 35.5 -14.5t12.5 -36.5v-156q0 -47 -48 -47h-174q-22 0 -35.5 12.5t-13.5 34.5zM120 -553v1640h238v-1095v-44q0 -143 -11 -258q-13 -134 -57 -243h-170z" />
<glyph unicode="k" horiz-adv-x="1097" d="M104 0v1602h238v-887h67l348 372h308l-436 -470l436 -617h-285l-371 520h-67v-520h-238z" />
<glyph unicode="l" horiz-adv-x="630" d="M104 387v1217h238v-1188q0 -115 25 -160t77 -61q140 -43 154 -43v-152h-216q-136 0 -207 89.5t-71 297.5z" />
<glyph unicode="m" horiz-adv-x="1808" d="M104 0v1087h186l52 -122q6 4 34 22.5t36 23.5t33 20t36.5 20t35.5 16.5t41 15t41 9.5t48 8t51 2q102 0 178 -39.5t111 -108.5q194 148 408 148q161 0 245 -101.5t84 -269.5v-731h-238v734q0 80 -39 123t-104 43q-99 0 -171.5 -21.5t-144.5 -74.5q0 -3 0.5 -35t0.5 -35 v-734h-237v734q0 80 -39.5 123t-105.5 43q-91 0 -151.5 -22t-152.5 -79v-799h-238z" />
<glyph unicode="n" d="M104 0v1087h186l52 -119q110 72 157 94q97 44 208 44q87 0 152 -29.5t103 -82t56 -117t18 -141.5v-736h-237v739q0 85 -38.5 125t-105.5 40q-94 0 -158 -22.5t-155 -79.5v-802h-238z" />
<glyph unicode="o" horiz-adv-x="1153" d="M87 528q0 169 24.5 277t84.5 174t150 92.5t231 26.5q142 0 234 -27.5t150 -96t82 -175t24 -271.5q0 -155 -23.5 -255t-81.5 -164.5t-150 -91.5t-235 -27q-141 0 -234 29t-150.5 95t-81.5 165.5t-24 248.5zM324 528q0 -93 10.5 -154.5t27.5 -98t51.5 -55.5t69.5 -24t94 -5 q51 0 82.5 3t63.5 14.5t49 33.5t31.5 59.5t20 92.5t5.5 134q0 85 -4.5 143.5t-17.5 100.5t-30 65.5t-48 37t-64.5 17.5t-87.5 4q-53 0 -85.5 -4t-64.5 -17t-49 -37t-30.5 -65.5t-18.5 -100.5t-5 -144z" />
<glyph unicode="p" horiz-adv-x="1136" d="M104 -553v1640h190l46 -113q56 44 160.5 85t195.5 41q356 0 356 -551q0 -99 -7.5 -175.5t-30.5 -152.5t-61 -125.5t-103.5 -80.5t-153.5 -31q-74 0 -176 20t-181 54v-611h-235zM340 227q139 -45 309 -45q57 0 91 27t54.5 108t20.5 225q0 183 -41.5 265t-124.5 82 q-161 0 -309 -77v-585z" />
<glyph unicode="q" horiz-adv-x="1136" d="M87 549q0 274 98.5 412.5t291.5 138.5q145 0 301.5 -18.5t254.5 -38.5v-1596h-237v612q-72 -39 -158 -59t-161 -20q-92 0 -160.5 26.5t-112 73t-70 119.5t-37 156.5t-10.5 193.5zM324 488.5q0 -19.5 1.5 -60t5 -59.5t9.5 -51.5t15 -48t23.5 -36.5t33 -30.5t43.5 -17 t56 -7.5q86 0 141.5 9t143.5 38v680h-283q-38 0 -68.5 -13.5t-49.5 -33.5t-33.5 -52t-21.5 -60t-11 -67.5t-4.5 -64.5t-0.5 -60v-65.5z" />
<glyph unicode="r" horiz-adv-x="860" d="M104 0v1087h193l45 -137q44 34 74.5 55t76 45.5t94.5 36.5t101 12q100 0 132 -14v-231q-54 8 -155 8q-103 0 -175 -26t-148 -94v-742h-238z" />
<glyph unicode="s" horiz-adv-x="1038" d="M69 719v94q0 285 283 285q160 0 331 -11.5t233 -35.5v-158h-508q-66 0 -83.5 -20.5t-17.5 -70.5v-66q0 -25 5.5 -41.5t13 -25.5t22.5 -13.5t26.5 -5.5t33.5 -1h282q141 0 210.5 -75.5t69.5 -199.5v-108q0 -80 -22.5 -136.5t-62 -85.5t-83.5 -41.5t-98 -12.5 q-155 0 -346.5 14t-243.5 38v155h531q88 0 88 84v68q0 44 -19 65.5t-69 21.5h-279q-150 0 -223.5 65t-73.5 218z" />
<glyph unicode="t" horiz-adv-x="778" d="M35 895v143l185 52l44 303h194v-303h270v-195h-270v-477q0 -116 24.5 -161.5t76.5 -61.5q140 -43 154 -43v-151h-225q-128 0 -198 90.5t-70 297.5v506h-185z" />
<glyph unicode="u" d="M87 351v736h237v-739q0 -85 38.5 -125t105.5 -40q93 0 157 23t156 80v801h237v-1087h-185l-52 120q-17 -10 -54.5 -33t-55.5 -33.5t-52.5 -27t-61 -24t-64.5 -14t-78 -6.5q-87 0 -152 29.5t-102.5 81.5t-55.5 116.5t-18 141.5z" />
<glyph unicode="v" horiz-adv-x="1134" d="M35 1087h255l275 -792l281 792h254l-409 -1087h-259z" />
<glyph unicode="w" horiz-adv-x="1673" d="M35 1087h255l256 -792l226 792h242l-89 -313l201 -479l257 792h257l-375 -1087h-259l-192 444l-143 -444h-267z" />
<glyph unicode="x" horiz-adv-x="1134" d="M42 0l382 545l-382 542h289l234 -359l240 359h289l-386 -548l370 -539h-273l-237 356l-237 -356h-289z" />
<glyph unicode="y" horiz-adv-x="1165" d="M37 1087h251l216 -793q7 -23 18 -39.5t22.5 -24.5t25.5 -12t23.5 -4.5t19 0t10.5 0.5l251 873h252l-414 -1431l-151 -209h-164l167 553q-223 0 -295 258z" />
<glyph unicode="z" horiz-adv-x="956" d="M52 879v208h854v-208l-508 -668h508v-209h-823v208l526 669h-557z" />
<glyph unicode="{" horiz-adv-x="655" d="M35 589v188q29 3 44 4.5t41.5 8.5t40 17.5t25 30.5t11.5 47v458q0 170 107 275.5t318 105.5v-208q-93 0 -140 -49.5t-47 -180.5v-412q0 -84 -50.5 -130.5t-138.5 -59.5q84 -15 135.5 -64t51.5 -120v-528q0 -101 47.5 -152.5t141.5 -47.5v-202q-118 0 -203 27t-133 77 t-69.5 111t-21.5 137v559q0 57 -47 85t-113 23z" />
<glyph unicode="|" horiz-adv-x="503" d="M149 -147v1724h209v-1724h-209z" />
<glyph unicode="}" horiz-adv-x="655" d="M35 -228q94 -4 141.5 47.5t47.5 152.5v528q0 71 51 120t135 64q-87 13 -137.5 59.5t-50.5 130.5v412q0 131 -47 180.5t-140 49.5v208q211 0 317.5 -105.5t106.5 -275.5v-458q0 -27 11.5 -47t25 -30.5t40.5 -17.5t42 -8.5t44 -4.5v-188q-66 5 -113 -23t-47 -85v-559 q0 -76 -21.5 -137t-69.5 -111t-133 -77t-203 -27v202z" />
<glyph unicode="~" horiz-adv-x="872" d="M87 1190l26 26l27 27t25.5 23t29 23t28.5 17.5t33.5 15.5t34.5 8t40 4q46 0 111.5 -36t105.5 -36q38 0 76 14t59 28t55 40l48 -109q-64 -70 -93 -93q-70 -55 -140 -55q-47 0 -118.5 36t-110.5 36q-28 0 -55 -7t-42 -14.5t-46.5 -25t-46.5 -25.5z" />
<glyph unicode="&#xa1;" horiz-adv-x="559" d="M151 -553l22 1090h205l25 -1090h-252zM153 744v153q0 21 13.5 33t35.5 14h147q19 -2 34 -17t15 -36v-146q-2 -55 -46 -55h-150q-23 0 -36 14t-13 40z" />
<glyph unicode="&#xa2;" horiz-adv-x="999" d="M69 545q0 137 18 237.5t49.5 162t81 97.5t104 48t127.5 10v198h158v-206q180 -20 310 -55v-153q-229 15 -411 15q-46 0 -71.5 -4.5t-53.5 -23.5t-42 -57t-23 -106t-9 -170q0 -145 20 -220.5t60.5 -102t118.5 -26.5q84 0 190 5t170 10l64 5v-156q-135 -56 -326 -63v-186 h-157v183q-71 0 -124.5 12.5t-103.5 48.5t-81.5 97.5t-50 162t-18.5 237.5z" />
<glyph unicode="&#xa3;" horiz-adv-x="1202" d="M87 0v185l140 38v431h-140v128l140 42v182q0 95 12.5 168.5t33.5 125t57.5 88.5t74.5 58.5t94 33.5t107.5 15.5t123.5 3.5q52 0 149 -8.5t167 -16.5l71 -8v-188h-390q-45 0 -70.5 -1t-56 -4.5t-46.5 -10.5t-34.5 -19.5t-26.5 -31t-16 -46t-10.5 -62.5t-2.5 -82v-197 l491 -34v-136h-491v-431h651v-223h-1028z" />
<glyph unicode="&#xa4;" horiz-adv-x="923" d="M89 905l92 90l90 -89q85 59 186 59q106 0 190 -62l96 97l91 -92l-99 -99q47 -78 47 -168q0 -108 -59 -193l103 -102l-94 -93l-105 104q-79 -53 -170 -53q-97 0 -177 56l-96 -98l-91 96l96 95q-56 86 -56 188q0 94 49 171zM276 638q0 -77 52.5 -133t128.5 -56t129 56 t53 133q0 76 -53 129t-129 53q-75 0 -128 -53.5t-53 -128.5z" />
<glyph unicode="&#xa5;" horiz-adv-x="1271" d="M35 1499h259l326 -682l356 682h263l-455 -820h279v-150h-327v-84h327v-150h-327v-295h-237v295h-310v150h310v84h-310v150h265z" />
<glyph unicode="&#xa6;" horiz-adv-x="505" d="M149 -147v671h209v-671h-209zM149 879v698h209v-698h-209z" />
<glyph unicode="&#xa7;" horiz-adv-x="1116" d="M95 1208v115q0 144 76.5 213.5t204.5 69.5q106 0 301.5 -13t266.5 -26v-170h-518q-47 0 -69.5 -19t-23.5 -65v-98q0 -41 26 -60.5t69 -19.5h293q166 0 234 -64.5t67 -194.5v-91q0 -181 -107 -206q105 -17 105 -190v-128q0 -69 -17.5 -120.5t-44 -80.5t-66 -47 t-75.5 -23.5t-80 -5.5q-113 0 -305.5 13t-260.5 26v170h508q53 0 78 14t26 59v106q0 47 -21.5 62.5t-75.5 15.5h-296q-71 0 -121.5 10.5t-91 37.5t-60.5 77.5t-20 125.5v92q0 41 3 68.5t13.5 60.5t34.5 55.5t61 34.5q-114 44 -114 196zM333 740q0 -56 22.5 -72.5t77.5 -16.5 h246q37 0 59 5.5t31.5 19.5t11.5 27t2 39v96q0 27 -2.5 41.5t-12 29t-31 20t-58.5 5.5h-246q-62 0 -81 -19.5t-19 -80.5v-94z" />
<glyph unicode="&#xa8;" horiz-adv-x="923" d="M87 1192q0 47 34 80t81 33t80 -33t33 -80t-33 -81t-80 -34t-81 34t-34 81zM609 1192q0 47 34 80t81 33t80 -33t33 -80t-33 -81t-80 -34t-81 34t-34 81z" />
<glyph unicode="&#xa9;" horiz-adv-x="1646" d="M95 754q0 745 501 745h503q84 0 152.5 -25t115 -66t81.5 -102.5t54.5 -124t31.5 -141t15.5 -144t3.5 -142.5q0 -226 -48 -392.5t-151.5 -264t-254.5 -97.5h-503q-93 0 -170 32t-130.5 89t-93.5 129.5t-62.5 159t-33.5 171.5t-11 173zM262 754q0 -93 12 -178.5 t38.5 -161.5t65 -132t94.5 -89t124 -33h496q134 1 214 147.5t80 446.5q0 62 -1.5 110.5t-8.5 112.5t-18.5 111.5t-33 97t-51 81.5t-74 52t-100.5 20h-503q-58 0 -105 -15t-91 -54.5t-73.5 -103.5t-47 -168.5t-17.5 -243.5zM463 748q0 446 295 446q67 0 178 -14t194 -35v-135 q-172 24 -343 24q-83 0 -120 -68.5t-37 -224.5q0 -139 36 -209.5t126 -70.5q144 0 350 33v-136q-158 -57 -378 -57q-52 0 -94 11.5t-81.5 42t-66.5 79.5t-43 129t-16 185z" />
<glyph unicode="&#xaa;" horiz-adv-x="747" d="M52 542v133h645v-133h-645zM52 953v79q0 84 55.5 137.5t163.5 53.5q236 -2 236 0q2 44 0 46q0 52 -27 71t-85 19q-76 0 -187 -7.5t-131 -8.5v118q66 18 106.5 27t104 17t133.5 8q273 2 273 -225v-514h-136l-50 95q-5 -9 -39 -32t-93 -47t-110 -24q-97 1 -155.5 54.5 t-58.5 132.5zM231 986q0 -40 20.5 -54.5t57.5 -14.5q45 0 94.5 14.5t76.5 28.5l27 14v141l-204 -16q-72 -6 -72 -74v-39z" />
<glyph unicode="&#xab;" horiz-adv-x="1165" d="M87 725l422 416l138 -138l-285 -278l293 -287l-136 -139zM511 725l422 416l139 -138l-285 -278l292 -287l-136 -139z" />
<glyph unicode="&#xac;" horiz-adv-x="1036" d="M81 503v202h874v-379h-201v177h-673z" />
<glyph unicode="&#xad;" horiz-adv-x="724" d="M41 489v209h643v-209h-643z" />
<glyph unicode="&#xae;" horiz-adv-x="1646" d="M95 754q0 745 501 745h503q84 0 152.5 -25t115 -66t81.5 -102.5t54.5 -124t31.5 -141t15.5 -144t3.5 -142.5q0 -226 -48 -392.5t-151.5 -264t-254.5 -97.5h-503q-93 0 -170 32t-130.5 89t-93.5 129.5t-62.5 159t-33.5 171.5t-11 173zM262 754q0 -93 12 -178.5 t38.5 -161.5t65 -132t94.5 -89t124 -33h496q134 1 214 147.5t80 446.5q0 62 -1.5 110.5t-8.5 112.5t-18.5 111.5t-33 97t-51 81.5t-74 52t-100.5 20h-503q-58 0 -105 -15t-91 -54.5t-73.5 -103.5t-47 -168.5t-17.5 -243.5zM517 313v875h370q274 0 274 -269q0 -75 -15 -127 t-43.5 -79.5t-53 -40t-61.5 -22.5l181 -337h-182l-177 334l-126 25v-359h-167zM684 791h187q79 0 101.5 22.5t22.5 102.5q0 38 -9 62t-29 34.5t-37.5 13t-48.5 2.5h-187v-237z" />
<glyph unicode="&#xaf;" horiz-adv-x="770" d="M87 1087v151h598v-151h-598z" />
<glyph unicode="&#xb0;" horiz-adv-x="587" d="M87 1294q0 88 61.5 149.5t147.5 61.5t146 -61.5t60 -149.5t-60 -148.5t-146 -60.5q-87 0 -148 61t-61 148zM197 1294q0 -40 29 -68.5t70 -28.5q40 0 68 28t28 69t-28 70t-68 29t-69.5 -29.5t-29.5 -69.5z" />
<glyph unicode="&#xb1;" horiz-adv-x="1044" d="M97 157v209h852v-209h-852zM97 785v209h320v322h209v-322h323v-209h-323v-321h-209v321h-320z" />
<glyph unicode="&#xb2;" horiz-adv-x="808" d="M53.5 1649.5q-0.5 35.5 0 71t1.5 34.5q87 13 127.5 19t114.5 11.5t153 5.5q149 0 218 -78t69 -213q0 -229 -371 -529h370v-176h-674v167q9 7 44 32.5t56 41t60.5 46t66 53t63 55t61.5 59t52 59.5t43.5 60.5t27 57.5t10.5 57q0 72 -34.5 101.5t-121.5 29.5h-335 q-1 0 -1.5 35.5z" />
<glyph unicode="&#xb3;" horiz-adv-x="833" d="M52 1605v136q56 20 135 29t127 10t162 0q123 -1 189.5 -69t66.5 -175v-65q0 -72 -29.5 -120.5t-81.5 -66.5q111 -51 111 -199v-51q0 -248 -266 -248h-50h-51.5t-45 0.5t-49 1.5t-42 3t-46 5t-39.5 7t-43.5 9.5t-39.5 12.5l2 136l340 1q82 0 112 20.5t30 76.5v34 q0 106 -134 109l-266 10v148l266 14q70 2 103.5 26.5t33.5 75.5v32q0 52 -35 74.5t-102 22.5h-358z" />
<glyph unicode="&#xb4;" horiz-adv-x="495" d="M35 1087l197 280h231l-259 -280h-169z" />
<glyph unicode="&#xb5;" horiz-adv-x="1208" d="M156 351v736h238v-739q0 -85 38 -125t105 -40q93 0 157.5 23t156.5 80v801h237v-1087h-185l-52 120q-10 -6 -41 -24.5t-43.5 -25.5t-39.5 -21.5t-44.5 -21.5t-42.5 -15.5t-49.5 -13t-50.5 -6.5q-78 -6 -146 25v-570h-238v904z" />
<glyph unicode="&#xb6;" horiz-adv-x="1183" d="M69 1022v190q0 139 92 213t228 74h762v-191h-120v-1308h-188v1312h-157v-1865h-187v1315q-1 0 -17.5 -10t-40.5 -17.5t-52 -7.5q-156 0 -238 83.5t-82 211.5zM256 1039q0 -125 140 -125h103v398h-103q-79 0 -109.5 -34.5t-30.5 -92.5v-146z" />
<glyph unicode="&#xb7;" horiz-adv-x="544" d="M148 706v160q0 51 49 51h151q51 0 51 -51v-160q0 -47 -51 -47h-151q-22 0 -35.5 12.5t-13.5 34.5z" />
<glyph unicode="&#xb8;" horiz-adv-x="505" d="M87 -256l97 31q40 17 51 50t11 99h173q0 -159 -47 -222t-174 -63h-111v105z" />
<glyph unicode="&#xb9;" horiz-adv-x="552" d="M28 1542v123l228 113h186v-983h-187v803z" />
<glyph unicode="&#xba;" horiz-adv-x="802" d="M52 1126q0 218 76 300t276 82t274.5 -82.5t74.5 -299.5q0 -201 -75 -281t-274 -80q-198 0 -275 81.5t-77 279.5zM78 546v133h648v-133h-648zM239 1127q0 -57 7.5 -95t19 -59t35 -32t44.5 -13.5t59 -2.5q26 0 40 0.5t32.5 3.5t28.5 8t21.5 15t17 24.5t11.5 36t8 49.5t3 65 q1 63 -5 104t-16.5 64.5t-33.5 35t-45 14.5t-62 3q-35 0 -54 -1.5t-41 -8.5t-32.5 -21t-20.5 -39t-13.5 -61.5t-3.5 -89.5z" />
<glyph unicode="&#xbb;" horiz-adv-x="1165" d="M87 438l292 287l-285 278l139 138l422 -416l-432 -426zM511 438l293 287l-285 278l138 138l422 -416l-432 -426z" />
<glyph unicode="&#xbc;" horiz-adv-x="1884" d="M28 1271v123l228 112h186v-982h-187v803zM392 0l798 1526h180l-797 -1526h-181zM1027 295l380 685h201l-316 -582h264v224l52 100h135v-324h107v-149l-107 -33v-216h-187v216h-483z" />
<glyph unicode="&#xbd;" horiz-adv-x="2015" d="M28 1271v123l228 112h186v-982h-187v803zM379 0l797 1526h180l-797 -1526h-180zM1258.5 854.5q-0.5 35.5 0 71t1.5 34.5q86 13 127.5 19t116 11.5t153.5 5.5q150 0 220 -78.5t70 -212.5q0 -229 -375 -529h373v-176h-678v168q7 5 44.5 32.5t56.5 42t60.5 47t66.5 54 t63.5 55.5t62.5 60t52 60t44 62t27 58.5t11 57.5q0 67 -35 94.5t-122 27.5h-338q-1 0 -1.5 35.5z" />
<glyph unicode="&#xbe;" horiz-adv-x="2119" d="M52 1335v135q56 20 135.5 29t128 10t163.5 0q124 -1 190.5 -69.5t66.5 -175.5v-65q0 -72 -29.5 -120t-81.5 -66q111 -51 111 -199v-51q0 -248 -268 -248h-50h-52t-45.5 0.5t-49 1.5t-42 3t-46 5t-40 7t-44 9.5t-39.5 12.5l2 136l343 1q82 0 113 20.5t31 76.5v34 q0 106 -136 109l-269 10v147l269 15q71 2 104.5 26.5t33.5 75.5v33q0 52 -35 74.5t-103 22.5h-361zM600 0l797 1526h180l-797 -1526h-180zM1209 296l377 684h196l-316 -586h276v229l47 101h135v-330h107v-144l-107 -33v-216h-182v216h-488z" />
<glyph unicode="&#xbf;" horiz-adv-x="1112" d="M69 21q-2 190 123.5 283t350.5 69v193h206l1 -375q-192 2 -256 0q-75 -3 -121 -52.5t-50 -129.5q-1 -117 -1 -144q0 -82 56.5 -137t170.5 -52l529 1q-1 0 -1.5 -18.5t0 -44.5t0.5 -52v-44t-1 -18q-122 -21 -190 -30.5t-172 -16t-216 -1.5q-96 0 -172.5 24t-123.5 62.5 t-78 92t-43 107t-12 111.5v172zM522 762v152q0 23 14.5 36.5t35.5 14.5h146q22 -1 35.5 -13.5t13.5 -33.5v-156q-1 -23 -12.5 -36.5t-32.5 -14.5h-155q-43 7 -45 51z" />
<glyph unicode="&#xc0;" horiz-adv-x="1400" d="M78 0l522 1499h263l501 -1499h-260l-115 363h-529l-118 -363h-264zM388 1912h231l197 -280h-170zM527 580h400l-195 595z" />
<glyph unicode="&#xc1;" horiz-adv-x="1400" d="M78 0l522 1499h263l501 -1499h-260l-115 363h-529l-118 -363h-264zM527 580h400l-195 595zM646 1632l198 280h230l-258 -280h-170z" />
<glyph unicode="&#xc2;" horiz-adv-x="1400" d="M78 0l522 1499h263l501 -1499h-260l-115 363h-529l-118 -363h-264zM422 1632l227 274h188l204 -274h-174l-130 131l-139 -131h-176zM527 580h400l-195 595zM837 1906z" />
<glyph unicode="&#xc3;" horiz-adv-x="1400" d="M78 0l522 1499h263l501 -1499h-260l-115 363h-529l-118 -363h-264zM382 1735q66 65 123.5 101.5t121.5 36.5q53 -2 120.5 -37t97.5 -35q68 -3 188 77l48 -109q-36 -34 -51.5 -47.5t-50.5 -40t-66.5 -37.5t-64.5 -10q-44 2 -85 19.5t-75.5 34t-65.5 16.5t-58.5 -7.5 t-43 -14.5t-45 -24.5t-46.5 -25.5zM527 580h400l-195 595z" />
<glyph unicode="&#xc4;" horiz-adv-x="1400" d="M78 0l522 1499h263l501 -1499h-260l-115 363h-529l-118 -363h-264zM356 1747q0 47 34 80.5t81 33.5t80 -33.5t33 -80.5t-33 -81t-80 -34t-81 34t-34 81zM527 580h400l-195 595zM878 1747q0 47 34.5 80.5t81.5 33.5t80 -33.5t33 -80.5t-33 -81t-80 -34t-81.5 34t-34.5 81z " />
<glyph unicode="&#xc5;" horiz-adv-x="1400" d="M78 0l522 1499h263l501 -1499h-260l-115 363h-529l-118 -363h-264zM524 1704q0 88 61 149.5t147 61.5t146.5 -61.5t60.5 -149.5t-60.5 -148.5t-146.5 -60.5t-147 60.5t-61 148.5zM527 580h400l-195 595zM635 1704q0 -40 28 -67.5t69 -27.5t68.5 27.5t27.5 67.5 q0 41 -28 69.5t-68 28.5t-68.5 -28.5t-28.5 -69.5z" />
<glyph unicode="&#xc6;" horiz-adv-x="1929" d="M52 0l591 1200q37 75 80.5 130t87 86.5t92.5 51t97.5 25t101 8t103.5 -1.5q562 -22 646 -33v-195h-603q-21 0 -37.5 -4t-26.5 -8t-18 -15.5t-11 -16.5t-5.5 -22t-3 -21t-1.5 -24v-307l617 -21v-194l-617 -20v-293q0 -29 7.5 -49t16 -30t27.5 -15t29.5 -5.5t33.5 -0.5h13 l578 -2v-197q-33 -4 -188.5 -13t-294.5 -15l-139 -7q-46 -3 -87 1t-85.5 20t-76 43.5t-52 77t-20.5 115.5v174h-385l-208 -422h-262zM627 638h280v575z" />
<glyph unicode="&#xc7;" horiz-adv-x="1175" d="M95 754q0 151 13.5 264t47.5 210t91 158.5t145.5 95.5t209.5 34q274 0 514 -62v-187l-16 1q-16 2 -44 4t-64 5t-80 5.5t-88 4.5t-91.5 3.5t-87.5 1.5q-73 0 -120 -11.5t-87 -43.5t-61 -93.5t-32.5 -156.5t-11.5 -237q0 -133 14 -227t48.5 -167t96.5 -109t153 -36 q96 0 213.5 4t187.5 8l70 4v-187q-213 -55 -514 -52q-139 1 -238.5 54.5t-157.5 156.5t-84.5 239t-26.5 316zM310 -254l97 30q40 17 51.5 50.5t11.5 99.5h173q0 -160 -47 -223t-174 -63h-112v106z" />
<glyph unicode="&#xc8;" horiz-adv-x="1161" d="M135 279v925q0 69 18 122.5t47.5 86t69.5 53t80.5 27.5t85.5 6q571 -22 655 -33v-194h-612q-38 0 -61 -9t-32 -28.5t-11 -34t-2 -42.5v-298l629 -21v-194l-629 -20v-298q0 -23 4.5 -40.5t10 -28.5t18 -18.5t19.5 -11t24.5 -5.5t24.5 -2h26h591v-192q-33 -4 -191.5 -13 t-300.5 -16l-142 -6q-45 -2 -85 2t-85.5 21t-77.5 47t-53 85t-21 130zM345 1906h231l197 -280h-170z" />
<glyph unicode="&#xc9;" horiz-adv-x="1161" d="M135 279v925q0 69 18 122.5t47.5 86t69.5 53t80.5 27.5t85.5 6q571 -22 655 -33v-194h-612q-38 0 -61 -9t-32 -28.5t-11 -34t-2 -42.5v-298l629 -21v-194l-629 -20v-298q0 -23 4.5 -40.5t10 -28.5t18 -18.5t19.5 -11t24.5 -5.5t24.5 -2h26h591v-192q-33 -4 -191.5 -13 t-300.5 -16l-142 -6q-45 -2 -85 2t-85.5 21t-77.5 47t-53 85t-21 130zM573 1626l197 279h231l-258 -279h-170z" />
<glyph unicode="&#xca;" horiz-adv-x="1161" d="M135 279v925q0 69 18 122.5t47.5 86t69.5 53t80.5 27.5t85.5 6q571 -22 655 -33v-194h-612q-38 0 -61 -9t-32 -28.5t-11 -34t-2 -42.5v-298l629 -21v-194l-629 -20v-298q0 -23 4.5 -40.5t10 -28.5t18 -18.5t19.5 -11t24.5 -5.5t24.5 -2h26h591v-192q-33 -4 -191.5 -13 t-300.5 -16l-142 -6q-45 -2 -85 2t-85.5 21t-77.5 47t-53 85t-21 130zM340 1632l227 274h188l204 -274h-174l-130 131l-139 -131h-176zM755 1906z" />
<glyph unicode="&#xcb;" horiz-adv-x="1161" d="M135 279v925q0 69 18 122.5t47.5 86t69.5 53t80.5 27.5t85.5 6q571 -22 655 -33v-194h-612q-38 0 -61 -9t-32 -28.5t-11 -34t-2 -42.5v-298l629 -21v-194l-629 -20v-298q0 -23 4.5 -40.5t10 -28.5t18 -18.5t19.5 -11t24.5 -5.5t24.5 -2h26h591v-192q-33 -4 -191.5 -13 t-300.5 -16l-142 -6q-45 -2 -85 2t-85.5 21t-77.5 47t-53 85t-21 130zM268 1741q0 47 34 80t81 33t80.5 -33t33.5 -80t-33.5 -81t-80.5 -34t-81 34t-34 81zM790 1741q0 47 34 80t82 33q47 0 80 -33t33 -80t-33 -81t-80 -34t-81.5 34t-34.5 81z" />
<glyph unicode="&#xcc;" horiz-adv-x="479" d="M-86 1912h231l198 -280h-170zM139 0v1499h237v-1499h-237z" />
<glyph unicode="&#xcd;" horiz-adv-x="479" d="M139 0v1499h237v-1499h-237zM173 1632l197 280h231l-258 -280h-170z" />
<glyph unicode="&#xce;" horiz-adv-x="479" d="M-52 1632l227 274h189l203 -274h-174l-129 131l-140 -131h-176zM139 0v1499h237v-1499h-237zM364 1906z" />
<glyph unicode="&#xcf;" horiz-adv-x="479" d="M-118 1747q0 47 34 80.5t81 33.5t80.5 -33.5t33.5 -80.5t-33.5 -81t-80.5 -34t-81 34t-34 81zM139 0v1499h237v-1499h-237zM404 1747q0 47 34.5 80.5t81.5 33.5t80 -33.5t33 -80.5t-33 -81t-80 -34t-81.5 34t-34.5 81z" />
<glyph unicode="&#xd0;" horiz-adv-x="1351" d="M6 701v125h133v672q0 1 609 1q523 0 523 -756q0 -124 -18 -232.5t-58 -203.5t-100 -162.5t-148.5 -106t-198.5 -38.5h-609v701h-133zM376 220h358q79 0 137.5 38.5t92.5 110t50 165t16 211.5q0 120 -14 212t-39 152t-62.5 97.5t-81.5 53.5t-99 16l-358 -1v-449h249v-125 h-249v-481z" />
<glyph unicode="&#xd1;" horiz-adv-x="1388" d="M139 0v1499h241l669 -1059v1059h238v-1499h-238l-671 1052v-1052h-239zM363 1735q66 65 123.5 101.5t121.5 36.5q53 -2 121 -37t98 -35q68 -3 188 77l48 -109q-34 -33 -51 -47.5t-51.5 -40.5t-66.5 -37t-65 -10q-44 2 -84.5 19.5t-75 34t-65.5 16.5t-58.5 -7.5t-43 -14.5 t-46 -24.5t-46.5 -25.5z" />
<glyph unicode="&#xd2;" horiz-adv-x="1376" d="M113 739q0 115 9.5 211t25.5 169.5t43 131t56.5 98.5t71 70t82 46.5t94 27.5t102 13t111.5 3q85 0 145.5 -5.5t126.5 -24.5t111 -52t87.5 -90t67.5 -138t40 -196.5t15 -263.5q0 -140 -14 -249.5t-38.5 -188t-65.5 -134.5t-86 -89.5t-110.5 -53t-129 -26t-149.5 -6.5 q-60 0 -106.5 2.5t-97 9.5t-88 20.5t-77 34t-67.5 51t-55.5 71.5t-45 95.5t-31.5 122.5t-20.5 153.5t-6.5 186.5zM351 739q0 -116 6.5 -196t24 -140.5t42 -95.5t67.5 -56.5t92.5 -28.5t124.5 -7q71 0 120 8t91 29.5t67.5 58t44 96t25.5 140t7 192.5q0 78 -3 141.5t-10.5 115 t-16.5 91t-24.5 69.5t-30.5 51.5t-39 36t-45.5 23t-54.5 12.5t-61 5.5t-70 1.5q-71 0 -111 -4t-87 -20.5t-71.5 -51.5t-47.5 -95t-31.5 -152.5t-8.5 -223.5zM365 1912h231l197 -280h-170z" />
<glyph unicode="&#xd3;" horiz-adv-x="1376" d="M113 739q0 115 9.5 211t25.5 169.5t43 131t56.5 98.5t71 70t82 46.5t94 27.5t102 13t111.5 3q85 0 145.5 -5.5t126.5 -24.5t111 -52t87.5 -90t67.5 -138t40 -196.5t15 -263.5q0 -140 -14 -249.5t-38.5 -188t-65.5 -134.5t-86 -89.5t-110.5 -53t-129 -26t-149.5 -6.5 q-60 0 -106.5 2.5t-97 9.5t-88 20.5t-77 34t-67.5 51t-55.5 71.5t-45 95.5t-31.5 122.5t-20.5 153.5t-6.5 186.5zM351 739q0 -116 6.5 -196t24 -140.5t42 -95.5t67.5 -56.5t92.5 -28.5t124.5 -7q71 0 120 8t91 29.5t67.5 58t44 96t25.5 140t7 192.5q0 78 -3 141.5t-10.5 115 t-16.5 91t-24.5 69.5t-30.5 51.5t-39 36t-45.5 23t-54.5 12.5t-61 5.5t-70 1.5q-71 0 -111 -4t-87 -20.5t-71.5 -51.5t-47.5 -95t-31.5 -152.5t-8.5 -223.5zM623 1632l198 280h230l-258 -280h-170z" />
<glyph unicode="&#xd4;" horiz-adv-x="1376" d="M113 739q0 115 9.5 211t25.5 169.5t43 131t56.5 98.5t71 70t82 46.5t94 27.5t102 13t111.5 3q85 0 145.5 -5.5t126.5 -24.5t111 -52t87.5 -90t67.5 -138t40 -196.5t15 -263.5q0 -140 -14 -249.5t-38.5 -188t-65.5 -134.5t-86 -89.5t-110.5 -53t-129 -26t-149.5 -6.5 q-60 0 -106.5 2.5t-97 9.5t-88 20.5t-77 34t-67.5 51t-55.5 71.5t-45 95.5t-31.5 122.5t-20.5 153.5t-6.5 186.5zM351 739q0 -116 6.5 -196t24 -140.5t42 -95.5t67.5 -56.5t92.5 -28.5t124.5 -7q71 0 120 8t91 29.5t67.5 58t44 96t25.5 140t7 192.5q0 78 -3 141.5t-10.5 115 t-16.5 91t-24.5 69.5t-30.5 51.5t-39 36t-45.5 23t-54.5 12.5t-61 5.5t-70 1.5q-71 0 -111 -4t-87 -20.5t-71.5 -51.5t-47.5 -95t-31.5 -152.5t-8.5 -223.5zM399 1632l227 274h188l204 -274h-174l-130 131l-139 -131h-176zM814 1906z" />
<glyph unicode="&#xd5;" horiz-adv-x="1376" d="M113 739q0 115 9.5 211t25.5 169.5t43 131t56.5 98.5t71 70t82 46.5t94 27.5t102 13t111.5 3q85 0 145.5 -5.5t126.5 -24.5t111 -52t87.5 -90t67.5 -138t40 -196.5t15 -263.5q0 -140 -14 -249.5t-38.5 -188t-65.5 -134.5t-86 -89.5t-110.5 -53t-129 -26t-149.5 -6.5 q-60 0 -106.5 2.5t-97 9.5t-88 20.5t-77 34t-67.5 51t-55.5 71.5t-45 95.5t-31.5 122.5t-20.5 153.5t-6.5 186.5zM351 739q0 -116 6.5 -196t24 -140.5t42 -95.5t67.5 -56.5t92.5 -28.5t124.5 -7q71 0 120 8t91 29.5t67.5 58t44 96t25.5 140t7 192.5q0 78 -3 141.5t-10.5 115 t-16.5 91t-24.5 69.5t-30.5 51.5t-39 36t-45.5 23t-54.5 12.5t-61 5.5t-70 1.5q-71 0 -111 -4t-87 -20.5t-71.5 -51.5t-47.5 -95t-31.5 -152.5t-8.5 -223.5zM359 1735q66 65 123.5 101.5t121.5 36.5q53 -2 120.5 -37t97.5 -35q68 -3 188 77l48 -109q-36 -34 -51.5 -47.5 t-50.5 -40t-66.5 -37.5t-64.5 -10q-44 2 -85 19.5t-75.5 34t-65.5 16.5t-58.5 -7.5t-43 -14.5t-45 -24.5t-46.5 -25.5z" />
<glyph unicode="&#xd6;" horiz-adv-x="1376" d="M113 739q0 115 9.5 211t25.5 169.5t43 131t56.5 98.5t71 70t82 46.5t94 27.5t102 13t111.5 3q85 0 145.5 -5.5t126.5 -24.5t111 -52t87.5 -90t67.5 -138t40 -196.5t15 -263.5q0 -140 -14 -249.5t-38.5 -188t-65.5 -134.5t-86 -89.5t-110.5 -53t-129 -26t-149.5 -6.5 q-60 0 -106.5 2.5t-97 9.5t-88 20.5t-77 34t-67.5 51t-55.5 71.5t-45 95.5t-31.5 122.5t-20.5 153.5t-6.5 186.5zM333 1747q0 47 34 80.5t81 33.5t80 -33.5t33 -80.5t-33 -81t-80 -34t-81 34t-34 81zM351 739q0 -116 6.5 -196t24 -140.5t42 -95.5t67.5 -56.5t92.5 -28.5 t124.5 -7q71 0 120 8t91 29.5t67.5 58t44 96t25.5 140t7 192.5q0 78 -3 141.5t-10.5 115t-16.5 91t-24.5 69.5t-30.5 51.5t-39 36t-45.5 23t-54.5 12.5t-61 5.5t-70 1.5q-71 0 -111 -4t-87 -20.5t-71.5 -51.5t-47.5 -95t-31.5 -152.5t-8.5 -223.5zM855 1747q0 47 34 80.5 t81 33.5t80.5 -33.5t33.5 -80.5t-33.5 -81t-80.5 -34t-81 34t-34 81z" />
<glyph unicode="&#xd7;" horiz-adv-x="942" d="M97 501l228 226l-228 228l147 148l228 -227l229 228l147 -147l-229 -230l228 -226l-147 -148l-228 227l-226 -226z" />
<glyph unicode="&#xd8;" horiz-adv-x="1388" d="M120 739q0 116 9 211.5t25 169t42.5 131t55.5 98.5t70.5 70t81.5 46.5t94 27.5t102.5 13t112.5 3q126 0 215.5 -15.5t157.5 -59.5l43 65h143l-98 -146q133 -174 133 -614q0 -140 -14 -249.5t-38.5 -188t-65.5 -134.5t-86.5 -89.5t-111 -53t-129 -26t-149.5 -6.5 q-137 0 -230.5 16.5t-162.5 65.5l-50 -74h-143l108 161q-115 165 -115 578zM357 739q0 -239 42 -340l553 841q-39 29 -93 37.5t-146 8.5q-61 0 -96.5 -2.5t-78.5 -13.5t-66.5 -33.5t-49 -61.5t-37.5 -97.5t-20 -142.5t-8 -196zM459 278q40 -35 100 -49t154 -14q71 0 120 8 t91.5 29.5t68 58t44 96t26 140t7.5 192.5q0 274 -49 391z" />
<glyph unicode="&#xd9;" horiz-adv-x="1370" d="M139 655v844h237v-844q0 -87 7 -153t19 -113.5t34.5 -79.5t46 -51t62 -29t74 -13t89.5 -3t92 5.5t77.5 21t64.5 46t46 78.5t30.5 121t9.5 170v844h239v-844q0 -108 -12 -197t-29.5 -154t-49.5 -115.5t-60 -83.5t-74 -55.5t-78 -34t-86 -17.5t-84.5 -7t-85.5 -1 q-164 0 -230 12q-166 29 -245 163q-94 158 -94 490zM360 1912h230l198 -280h-170z" />
<glyph unicode="&#xda;" horiz-adv-x="1370" d="M139 655v844h237v-844q0 -87 7 -153t19 -113.5t34.5 -79.5t46 -51t62 -29t74 -13t89.5 -3t92 5.5t77.5 21t64.5 46t46 78.5t30.5 121t9.5 170v844h239v-844q0 -108 -12 -197t-29.5 -154t-49.5 -115.5t-60 -83.5t-74 -55.5t-78 -34t-86 -17.5t-84.5 -7t-85.5 -1 q-164 0 -230 12q-166 29 -245 163q-94 158 -94 490zM618 1632l198 280h230l-258 -280h-170z" />
<glyph unicode="&#xdb;" horiz-adv-x="1370" d="M139 655v844h237v-844q0 -87 7 -153t19 -113.5t34.5 -79.5t46 -51t62 -29t74 -13t89.5 -3t92 5.5t77.5 21t64.5 46t46 78.5t30.5 121t9.5 170v844h239v-844q0 -108 -12 -197t-29.5 -154t-49.5 -115.5t-60 -83.5t-74 -55.5t-78 -34t-86 -17.5t-84.5 -7t-85.5 -1 q-164 0 -230 12q-166 29 -245 163q-94 158 -94 490zM393 1632l228 274h188l204 -274h-174l-130 131l-140 -131h-176zM809 1906z" />
<glyph unicode="&#xdc;" horiz-adv-x="1370" d="M139 655v844h237v-844q0 -87 7 -153t19 -113.5t34.5 -79.5t46 -51t62 -29t74 -13t89.5 -3t92 5.5t77.5 21t64.5 46t46 78.5t30.5 121t9.5 170v844h239v-844q0 -108 -12 -197t-29.5 -154t-49.5 -115.5t-60 -83.5t-74 -55.5t-78 -34t-86 -17.5t-84.5 -7t-85.5 -1 q-164 0 -230 12q-166 29 -245 163q-94 158 -94 490zM328 1747q0 47 34 80.5t81 33.5t80 -33.5t33 -80.5t-33 -81t-80 -34t-81 34t-34 81zM850 1747q0 47 34 80.5t81 33.5t80 -33.5t33 -80.5t-33 -81t-80 -34t-81 34t-34 81z" />
<glyph unicode="&#xdd;" horiz-adv-x="1325" d="M78 1499h259l327 -743l359 743h259l-502 -1010v-489h-238v489zM595 1632l198 280h230l-258 -280h-170z" />
<glyph unicode="&#xde;" horiz-adv-x="1126" d="M104 0v1493h238v-289h339q360 -2 360 -436q0 -87 -12.5 -157t-32 -117.5t-49.5 -82.5t-60 -54.5t-68.5 -31.5t-69.5 -16t-68 -4q-53 0 -89.5 -0.5t-95.5 8.5t-154 31v-344h-238zM342 521h281q44 0 73.5 8.5t55 33.5t38 76t12.5 130q-1 61 -13.5 103.5t-28.5 64.5t-43 34 t-46 14t-48 2h-281v-466z" />
<glyph unicode="&#xdf;" horiz-adv-x="1169" d="M104 0v1159q0 90 31 168.5t89.5 139t150.5 95t207 34.5q142 0 246.5 -36.5t157.5 -95.5t75.5 -133t10.5 -149.5t-47 -145.5t-89 -121q-22 -21 -63 -57t-56 -51t-29.5 -41t-14.5 -53q0 -24 20 -42.5t52 -32t70.5 -27t77.5 -34t71 -47t52 -70.5t20 -101v-74 q0 -69 -20.5 -122.5t-53.5 -86.5t-78.5 -54.5t-90.5 -29.5t-94 -8t-103 5t-79 8.5t-83 14.5l-58 11v173q23 -1 79 -4t106.5 -5t95.5 -2q57 0 98.5 32.5t43.5 90.5v66q0 33 -26.5 57t-66 36.5t-85.5 31.5t-85.5 41t-66 67t-26.5 108q0 66 20 113t60 87.5t125 107.5 q91 75 91 183q0 169 -249 169q-119 0 -183.5 -65.5t-64.5 -214.5v-1095h-238z" />
<glyph unicode="&#xe0;" horiz-adv-x="1062" d="M69 270v111q0 128 76 208.5t226 80.5q368 -2 368 0q2 92 0 94q0 84 -37.5 115t-115.5 31q-137 0 -481 -24v153q194 67 508 69q364 2 364 -337v-771h-185l-53 124q-6 -11 -60 -42t-145.5 -63t-169.5 -31q-136 3 -215.5 83t-79.5 199zM204 1510h230l198 -279h-170zM307 300 q0 -64 28.5 -87.5t79.5 -23.5q60 0 141 23t132 46l51 23v233l-332 -25q-100 -9 -100 -118v-71z" />
<glyph unicode="&#xe1;" horiz-adv-x="1062" d="M69 270v111q0 128 76 208.5t226 80.5q368 -2 368 0q2 92 0 94q0 84 -37.5 115t-115.5 31q-137 0 -481 -24v153q194 67 508 69q364 2 364 -337v-771h-185l-53 124q-6 -11 -60 -42t-145.5 -63t-169.5 -31q-136 3 -215.5 83t-79.5 199zM307 300q0 -64 28.5 -87.5t79.5 -23.5 q60 0 141 23t132 46l51 23v233l-332 -25q-100 -9 -100 -118v-71zM455 1231l198 279h230l-258 -279h-170z" />
<glyph unicode="&#xe2;" horiz-adv-x="1062" d="M69 270v111q0 128 76 208.5t226 80.5q368 -2 368 0q2 92 0 94q0 84 -37.5 115t-115.5 31q-137 0 -481 -24v153q194 67 508 69q364 2 364 -337v-771h-185l-53 124q-6 -11 -60 -42t-145.5 -63t-169.5 -31q-136 3 -215.5 83t-79.5 199zM232 1231l228 273h188l204 -273h-174 l-130 131l-139 -131h-177zM307 300q0 -64 28.5 -87.5t79.5 -23.5q60 0 141 23t132 46l51 23v233l-332 -25q-100 -9 -100 -118v-71zM648 1504z" />
<glyph unicode="&#xe3;" horiz-adv-x="1062" d="M69 270v111q0 128 76 208.5t226 80.5q368 -2 368 0q2 92 0 94q0 84 -37.5 115t-115.5 31q-137 0 -481 -24v153q194 67 508 69q364 2 364 -337v-771h-185l-53 124q-6 -11 -60 -42t-145.5 -63t-169.5 -31q-136 3 -215.5 83t-79.5 199zM186 1333q67 66 124 102.5t121 36.5 q53 -2 121 -37t98 -35q68 -3 187 77l48 -109q-80 -76 -121 -102q-60 -35 -112 -34q-44 2 -85 20t-75.5 34.5t-65.5 16.5t-58.5 -7.5t-43 -14.5t-45 -24.5t-46.5 -25.5zM307 300q0 -64 28.5 -87.5t79.5 -23.5q60 0 141 23t132 46l51 23v233l-332 -25q-100 -9 -100 -118v-71z " />
<glyph unicode="&#xe4;" horiz-adv-x="1062" d="M69 270v111q0 128 76 208.5t226 80.5q368 -2 368 0q2 92 0 94q0 84 -37.5 115t-115.5 31q-137 0 -481 -24v153q194 67 508 69q364 2 364 -337v-771h-185l-53 124q-6 -11 -60 -42t-145.5 -63t-169.5 -31q-136 3 -215.5 83t-79.5 199zM165 1346q0 47 34 80t81 33t80 -33 t33 -80t-33 -81t-80 -34t-81 34t-34 81zM307 300q0 -64 28.5 -87.5t79.5 -23.5q60 0 141 23t132 46l51 23v233l-332 -25q-100 -9 -100 -118v-71zM687 1346q0 47 34 80t81 33t80 -33t33 -80t-33 -81t-80 -34t-81 34t-34 81z" />
<glyph unicode="&#xe5;" horiz-adv-x="1062" d="M69 270v111q0 128 76 208.5t226 80.5q368 -2 368 0q2 92 0 94q0 84 -37.5 115t-115.5 31q-137 0 -481 -24v153q194 67 508 69q364 2 364 -337v-771h-185l-53 124q-6 -11 -60 -42t-145.5 -63t-169.5 -31q-136 3 -215.5 83t-79.5 199zM307 300q0 -64 28.5 -87.5t79.5 -23.5 q60 0 141 23t132 46l51 23v233l-332 -25q-100 -9 -100 -118v-71zM335 1400q0 88 61.5 149.5t147.5 61.5t146.5 -61.5t60.5 -149.5t-60.5 -148.5t-146.5 -60.5q-87 0 -148 61t-61 148zM446 1400q0 -40 28.5 -68t69.5 -28q40 0 68 28t28 68q0 41 -28 69t-68 28 q-41 0 -69.5 -28.5t-28.5 -68.5z" />
<glyph unicode="&#xe6;" horiz-adv-x="1746" d="M69 278v76q0 128 76 208.5t226 80.5q368 -2 368 0q2 127 0 129q0 84 -37.5 115t-115.5 31q-126 0 -481 -24v153q174 67 508 69q191 0 276 -99q57 51 137 69t207 18q53 0 92.5 -1.5t81.5 -6.5t72 -14t60 -23.5t50 -35t38.5 -49t28.5 -65.5t16 -84t6 -105 q0 -134 -72.5 -195.5t-222.5 -61.5h-387q0 -108 23.5 -165.5t69 -78t128.5 -20.5h49.5h49.5h43t45 0.5t40 1.5t43 2t39.5 2.5t44 3.5t41.5 5l46 6v-165q-73 -25 -177 -38.5t-179 -16t-185 -2.5q-116 0 -182.5 34.5t-121.5 107.5q-9 -16 -83.5 -50t-181.5 -64t-184 -30 q-136 3 -215.5 83t-79.5 199zM307 304q0 -64 28 -85.5t80 -21.5q60 0 141 23t132 46l51 23v206l-332 -25q-100 -9 -100 -118v-48zM996 641h339q106 0 106 88q0 44 -2.5 71.5t-11.5 49t-21 32t-37 17.5t-52 8.5t-73 1.5q-117 0 -154 -12q-59 -20 -79 -93q-15 -56 -15 -163z " />
<glyph unicode="&#xe7;" horiz-adv-x="1015" d="M87 545q0 134 17.5 233t47.5 160.5t77 98t98 50t118 13.5q98 0 237 -15.5t251 -47.5v-153q-228 15 -410 15q-46 0 -71.5 -4.5t-53.5 -23.5t-42 -57t-23 -106t-9 -170q0 -145 20 -220.5t60.5 -102t118.5 -26.5q84 0 190 5t171 10l64 5v-156q-30 -13 -63.5 -23t-58 -16.5 t-66 -11.5t-59 -7.5t-67.5 -4t-59.5 -2t-67.5 -1t-62 -0.5q-65 0 -115.5 13.5t-97.5 51t-78 98.5t-49 161t-18 234zM336 -256l97 30q40 17 51.5 50.5t11.5 99.5h173q0 -160 -47 -223t-174 -63h-112v106z" />
<glyph unicode="&#xe8;" horiz-adv-x="1075" d="M87 549q0 119 11 205t37 147.5t60.5 99t91.5 59t120 29t155 7.5q70 0 117.5 -3t98 -12t83 -26t62.5 -46t46.5 -70.5t26.5 -100t10 -135.5q0 -135 -73 -199.5t-222 -64.5h-387q0 -81 11.5 -130.5t41 -75.5t67 -34t101.5 -8h49.5h49.5h43t45 0.5t40 1.5t43 2t39.5 2.5 t44 3.5t41.5 5l46 6v-165q-73 -25 -177 -38.5t-179 -16t-185 -2.5q-204 0 -281 124t-77 435zM224 1500h230l198 -279h-170zM324 625h340q105 0 105 88q0 53 -5 84t-15.5 53.5t-34.5 32.5t-55.5 14t-85.5 4q-33 0 -51.5 -0.5t-43.5 -2.5t-39 -5.5t-32 -10.5t-27 -17.5 t-20.5 -25.5t-16.5 -35t-10.5 -46.5t-7 -59t-1.5 -73.5z" />
<glyph unicode="&#xe9;" horiz-adv-x="1075" d="M87 549q0 119 11 205t37 147.5t60.5 99t91.5 59t120 29t155 7.5q70 0 117.5 -3t98 -12t83 -26t62.5 -46t46.5 -70.5t26.5 -100t10 -135.5q0 -135 -73 -199.5t-222 -64.5h-387q0 -81 11.5 -130.5t41 -75.5t67 -34t101.5 -8h49.5h49.5h43t45 0.5t40 1.5t43 2t39.5 2.5 t44 3.5t41.5 5l46 6v-165q-73 -25 -177 -38.5t-179 -16t-185 -2.5q-204 0 -281 124t-77 435zM324 625h340q105 0 105 88q0 53 -5 84t-15.5 53.5t-34.5 32.5t-55.5 14t-85.5 4q-33 0 -51.5 -0.5t-43.5 -2.5t-39 -5.5t-32 -10.5t-27 -17.5t-20.5 -25.5t-16.5 -35t-10.5 -46.5 t-7 -59t-1.5 -73.5zM468 1221l198 279h231l-259 -279h-170z" />
<glyph unicode="&#xea;" horiz-adv-x="1075" d="M87 549q0 119 11 205t37 147.5t60.5 99t91.5 59t120 29t155 7.5q70 0 117.5 -3t98 -12t83 -26t62.5 -46t46.5 -70.5t26.5 -100t10 -135.5q0 -135 -73 -199.5t-222 -64.5h-387q0 -81 11.5 -130.5t41 -75.5t67 -34t101.5 -8h49.5h49.5h43t45 0.5t40 1.5t43 2t39.5 2.5 t44 3.5t41.5 5l46 6v-165q-73 -25 -177 -38.5t-179 -16t-185 -2.5q-204 0 -281 124t-77 435zM241 1221l228 273h188l204 -273h-174l-130 131l-140 -131h-176zM324 625h340q105 0 105 88q0 53 -5 84t-15.5 53.5t-34.5 32.5t-55.5 14t-85.5 4q-33 0 -51.5 -0.5t-43.5 -2.5 t-39 -5.5t-32 -10.5t-27 -17.5t-20.5 -25.5t-16.5 -35t-10.5 -46.5t-7 -59t-1.5 -73.5zM657 1494z" />
<glyph unicode="&#xeb;" horiz-adv-x="1075" d="M87 549q0 119 11 205t37 147.5t60.5 99t91.5 59t120 29t155 7.5q70 0 117.5 -3t98 -12t83 -26t62.5 -46t46.5 -70.5t26.5 -100t10 -135.5q0 -135 -73 -199.5t-222 -64.5h-387q0 -81 11.5 -130.5t41 -75.5t67 -34t101.5 -8h49.5h49.5h43t45 0.5t40 1.5t43 2t39.5 2.5 t44 3.5t41.5 5l46 6v-165q-73 -25 -177 -38.5t-179 -16t-185 -2.5q-204 0 -281 124t-77 435zM172 1336q0 47 34 80t81 33t80 -33t33 -80t-33 -81t-80 -34t-81 34t-34 81zM324 625h340q105 0 105 88q0 53 -5 84t-15.5 53.5t-34.5 32.5t-55.5 14t-85.5 4q-33 0 -51.5 -0.5 t-43.5 -2.5t-39 -5.5t-32 -10.5t-27 -17.5t-20.5 -25.5t-16.5 -35t-10.5 -46.5t-7 -59t-1.5 -73.5zM694 1336q0 47 34 80t81 33t80 -33t33 -80t-33 -81t-80 -34t-81 34t-34 81z" />
<glyph unicode="&#xec;" horiz-adv-x="444" d="M-120 1500h230l198 -279h-170zM104 0v1087h238v-1087h-238z" />
<glyph unicode="&#xed;" horiz-adv-x="444" d="M104 0v1087h238v-1087h-238zM138 1221l198 279h230l-258 -279h-170z" />
<glyph unicode="&#xee;" horiz-adv-x="444" d="M-87 1221l228 273h188l204 -273h-174l-130 131l-140 -131h-176zM104 0v1087h238v-1087h-238zM329 1494z" />
<glyph unicode="&#xef;" horiz-adv-x="444" d="M-152 1336q0 47 34 80t81 33t80 -33t33 -80t-33 -81t-80 -34t-81 34t-34 81zM104 0v1087h238v-1087h-238zM370 1336q0 47 34 80t81 33t80 -33t33 -80t-33 -81t-80 -34t-81 34t-34 81z" />
<glyph unicode="&#xf0;" horiz-adv-x="1103" d="M69 541q0 271 88 408.5t288 137.5h147q119 0 151 -23q-42 140 -130 224l-256 -113l-55 120l175 76q-97 41 -260 35v198q313 0 489 -123l208 92l57 -120l-156 -68q221 -259 221 -844q0 -541 -379 -541h-212q-206 0 -291 129t-85 412zM307 541q0 -86 8 -144t20 -91.5 t35 -51t45.5 -22.5t59.5 -5h153q102 0 136 71.5t34 242.5q0 82 -4.5 135t-15 92t-30.5 58.5t-48 28.5t-72 9h-153q-45 0 -74 -12t-51.5 -46.5t-32.5 -99t-10 -165.5z" />
<glyph unicode="&#xf1;" d="M104 0v1087h186l52 -119q110 72 157 94q97 44 208 44q87 0 152 -29.5t103 -82t56 -117t18 -141.5v-736h-237v739q0 85 -38.5 125t-105.5 40q-94 0 -158 -22.5t-155 -79.5v-802h-238zM220 1331q66 65 124 102t122 37q53 -2 120.5 -37t97.5 -35q68 -3 188 77l48 -109 q-36 -34 -51.5 -48t-51 -40.5t-67.5 -37.5t-64 -10q-44 2 -84.5 19.5t-75 34t-65.5 16.5t-58.5 -7t-42.5 -14.5t-45.5 -24.5t-46.5 -25z" />
<glyph unicode="&#xf2;" horiz-adv-x="1153" d="M87 528q0 169 24.5 277t84.5 174t150 92.5t231 26.5q142 0 234 -27.5t150 -96t82 -175t24 -271.5q0 -155 -23.5 -255t-81.5 -164.5t-150 -91.5t-235 -27q-141 0 -234 29t-150.5 95t-81.5 165.5t-24 248.5zM247 1500h230l198 -279h-170zM324 528q0 -93 10.5 -154.5 t27.5 -98t51.5 -55.5t69.5 -24t94 -5q51 0 82.5 3t63.5 14.5t49 33.5t31.5 59.5t20 92.5t5.5 134q0 85 -4.5 143.5t-17.5 100.5t-30 65.5t-48 37t-64.5 17.5t-87.5 4q-53 0 -85.5 -4t-64.5 -17t-49 -37t-30.5 -65.5t-18.5 -100.5t-5 -144z" />
<glyph unicode="&#xf3;" horiz-adv-x="1153" d="M87 528q0 169 24.5 277t84.5 174t150 92.5t231 26.5q142 0 234 -27.5t150 -96t82 -175t24 -271.5q0 -155 -23.5 -255t-81.5 -164.5t-150 -91.5t-235 -27q-141 0 -234 29t-150.5 95t-81.5 165.5t-24 248.5zM324 528q0 -93 10.5 -154.5t27.5 -98t51.5 -55.5t69.5 -24t94 -5 q51 0 82.5 3t63.5 14.5t49 33.5t31.5 59.5t20 92.5t5.5 134q0 85 -4.5 143.5t-17.5 100.5t-30 65.5t-48 37t-64.5 17.5t-87.5 4q-53 0 -85.5 -4t-64.5 -17t-49 -37t-30.5 -65.5t-18.5 -100.5t-5 -144zM492 1221l197 279h231l-258 -279h-170z" />
<glyph unicode="&#xf4;" horiz-adv-x="1153" d="M87 528q0 169 24.5 277t84.5 174t150 92.5t231 26.5q142 0 234 -27.5t150 -96t82 -175t24 -271.5q0 -155 -23.5 -255t-81.5 -164.5t-150 -91.5t-235 -27q-141 0 -234 29t-150.5 95t-81.5 165.5t-24 248.5zM274 1221l227 273h188l204 -273h-174l-130 131l-139 -131h-176z M324 528q0 -93 10.5 -154.5t27.5 -98t51.5 -55.5t69.5 -24t94 -5q51 0 82.5 3t63.5 14.5t49 33.5t31.5 59.5t20 92.5t5.5 134q0 85 -4.5 143.5t-17.5 100.5t-30 65.5t-48 37t-64.5 17.5t-87.5 4q-53 0 -85.5 -4t-64.5 -17t-49 -37t-30.5 -65.5t-18.5 -100.5t-5 -144z M689 1494z" />
<glyph unicode="&#xf5;" horiz-adv-x="1153" d="M87 528q0 169 24.5 277t84.5 174t150 92.5t231 26.5q142 0 234 -27.5t150 -96t82 -175t24 -271.5q0 -155 -23.5 -255t-81.5 -164.5t-150 -91.5t-235 -27q-141 0 -234 29t-150.5 95t-81.5 165.5t-24 248.5zM239 1323q66 65 123.5 101.5t121.5 36.5q53 -2 121 -36.5 t98 -34.5q69 -3 187 76l48 -109q-36 -34 -51.5 -47.5t-50.5 -40t-66.5 -37.5t-64.5 -10q-44 2 -85 19.5t-75.5 34t-65.5 16.5t-58.5 -7t-42.5 -14.5t-45.5 -24.5t-46.5 -25zM324 528q0 -93 10.5 -154.5t27.5 -98t51.5 -55.5t69.5 -24t94 -5q51 0 82.5 3t63.5 14.5t49 33.5 t31.5 59.5t20 92.5t5.5 134q0 85 -4.5 143.5t-17.5 100.5t-30 65.5t-48 37t-64.5 17.5t-87.5 4q-53 0 -85.5 -4t-64.5 -17t-49 -37t-30.5 -65.5t-18.5 -100.5t-5 -144z" />
<glyph unicode="&#xf6;" horiz-adv-x="1153" d="M87 528q0 169 24.5 277t84.5 174t150 92.5t231 26.5q142 0 234 -27.5t150 -96t82 -175t24 -271.5q0 -155 -23.5 -255t-81.5 -164.5t-150 -91.5t-235 -27q-141 0 -234 29t-150.5 95t-81.5 165.5t-24 248.5zM203 1336q0 47 34 80t81 33t80 -33t33 -80t-33 -81t-80 -34 t-81 34t-34 81zM324 528q0 -93 10.5 -154.5t27.5 -98t51.5 -55.5t69.5 -24t94 -5q51 0 82.5 3t63.5 14.5t49 33.5t31.5 59.5t20 92.5t5.5 134q0 85 -4.5 143.5t-17.5 100.5t-30 65.5t-48 37t-64.5 17.5t-87.5 4q-53 0 -85.5 -4t-64.5 -17t-49 -37t-30.5 -65.5t-18.5 -100.5 t-5 -144zM725 1336q0 47 34 80t81 33t80 -33t33 -80t-33 -81t-80 -34t-81 34t-34 81z" />
<glyph unicode="&#xf7;" horiz-adv-x="1032" d="M87 618v209h859v-209h-859zM400 331v127q0 51 50 51h133q48 0 48 -51v-127q0 -47 -48 -47h-133q-22 0 -36 13t-14 34zM400 975v127q0 51 50 51h133q48 0 48 -51v-127q0 -48 -48 -48h-133q-22 0 -36 13t-14 35z" />
<glyph unicode="&#xf8;" horiz-adv-x="1179" d="M88 0l102 133q-89 118 -89 395q0 169 24.5 277t84.5 174t150 92.5t231 26.5q198 0 302 -56l35 45h150l-95 -121q52 -65 75 -171t23 -267q0 -155 -23.5 -255t-81.5 -164.5t-150 -91.5t-235 -27q-209 0 -317 65l-43 -55h-143zM339 528q0 -118 26 -178l389 516 q-44 30 -163 30q-53 0 -85.5 -4t-64 -17t-48.5 -37t-30.5 -65.5t-18.5 -100.5t-5 -144zM415 232q28 -25 69 -33t107 -8q51 0 82.5 3t63.5 14.5t49 33.5t31.5 59.5t20 92.5t5.5 134q0 163 -32 226z" />
<glyph unicode="&#xf9;" d="M87 351v736h237v-739q0 -85 38.5 -125t105.5 -40q93 0 157 23t156 80v801h237v-1087h-185l-52 120q-17 -10 -54.5 -33t-55.5 -33.5t-52.5 -27t-61 -24t-64.5 -14t-78 -6.5q-87 0 -152 29.5t-102.5 81.5t-55.5 116.5t-18 141.5zM223 1500h230l198 -279h-170z" />
<glyph unicode="&#xfa;" d="M87 351v736h237v-739q0 -85 38.5 -125t105.5 -40q93 0 157 23t156 80v801h237v-1087h-185l-52 120q-17 -10 -54.5 -33t-55.5 -33.5t-52.5 -27t-61 -24t-64.5 -14t-78 -6.5q-87 0 -152 29.5t-102.5 81.5t-55.5 116.5t-18 141.5zM468 1221l197 279h231l-258 -279h-170z" />
<glyph unicode="&#xfb;" d="M87 351v736h237v-739q0 -85 38.5 -125t105.5 -40q93 0 157 23t156 80v801h237v-1087h-185l-52 120q-17 -10 -54.5 -33t-55.5 -33.5t-52.5 -27t-61 -24t-64.5 -14t-78 -6.5q-87 0 -152 29.5t-102.5 81.5t-55.5 116.5t-18 141.5zM243 1221l227 273h189l203 -273h-174 l-129 131l-140 -131h-176zM659 1494z" />
<glyph unicode="&#xfc;" d="M87 351v736h237v-739q0 -85 38.5 -125t105.5 -40q93 0 157 23t156 80v801h237v-1087h-185l-52 120q-17 -10 -54.5 -33t-55.5 -33.5t-52.5 -27t-61 -24t-64.5 -14t-78 -6.5q-87 0 -152 29.5t-102.5 81.5t-55.5 116.5t-18 141.5zM177 1336q0 47 34 80t81 33t80.5 -33 t33.5 -80t-33.5 -81t-80.5 -34t-81 34t-34 81zM699 1336q0 47 34 80t82 33q47 0 80 -33t33 -80t-33 -81t-80 -34t-81.5 34t-34.5 81z" />
<glyph unicode="&#xfd;" horiz-adv-x="1165" d="M37 1087h251l216 -793q7 -23 18 -39.5t22.5 -24.5t25.5 -12t23.5 -4.5t19 0t10.5 0.5l251 873h252l-414 -1431l-151 -209h-164l167 553q-223 0 -295 258zM496 1221l198 279h230l-258 -279h-170z" />
<glyph unicode="&#xfe;" horiz-adv-x="1136" d="M121 -553v2155h238v-635q59 46 161 89t192 43q97 0 167.5 -41.5t111 -118.5t59 -174.5t18.5 -221.5q0 -82 -5 -146.5t-18.5 -132.5t-39 -117.5t-64 -89.5t-96.5 -60.5t-133 -20.5q-76 0 -175.5 20t-177.5 56v-605h-238zM359 218q21 -7 43.5 -13t39.5 -10t42.5 -7t37.5 -5 t39 -3.5t34 -2t37 -2t33 -1.5q41 0 69 15t51 53.5t34.5 112t11.5 183.5q0 350 -166 350q-150 -7 -306 -83v-587z" />
<glyph unicode="&#xff;" horiz-adv-x="1165" d="M37 1087h251l216 -793q7 -23 18 -39.5t22.5 -24.5t25.5 -12t23.5 -4.5t19 0t10.5 0.5l251 873h252l-414 -1431l-151 -209h-164l167 553q-223 0 -295 258zM206 1336q0 47 34 80t81 33t80 -33t33 -80t-33 -81t-80 -34t-81 34t-34 81zM728 1336q0 47 34 80t81 33t80.5 -33 t33.5 -80t-33.5 -81t-80.5 -34t-81 34t-34 81z" />
<glyph unicode="&#x152;" horiz-adv-x="2099" d="M113 739q0 115 9.5 211t25.5 169.5t43 131t56.5 98.5t71 70t81.5 46.5t93.5 27.5t102 13t111.5 3q148 0 247.5 -24.5t168.5 -95.5q36 60 99.5 87t141.5 23q558 -22 642 -33v-194h-599q-38 0 -61 -9t-32.5 -28.5t-11.5 -34.5t-2 -42v-298l617 -21v-194l-617 -20v-298 q0 -23 4.5 -40.5t10 -28.5t18 -18.5t19.5 -11t24.5 -5.5t24.5 -2h26h579v-192q-33 -4 -188.5 -13t-294.5 -16l-139 -6q-201 -10 -268 110q-69 -65 -167 -88.5t-242 -23.5q-68 0 -118 3t-105 12.5t-95 26.5t-81 45t-69 67.5t-53.5 95.5t-40.5 127.5t-23.5 164t-8.5 205.5z M351 739q0 -116 6.5 -196t24 -140.5t42 -95.5t67 -56.5t92 -28.5t124.5 -7q85 0 140.5 12.5t100 44t68 92t35.5 150.5t12 225q0 130 -8.5 221.5t-30.5 151.5t-46 95t-70.5 52.5t-88 22t-112.5 4.5q-61 0 -96.5 -2.5t-78.5 -13.5t-66.5 -33.5t-49 -61.5t-37.5 -97.5 t-20 -142.5t-8 -196z" />
<glyph unicode="&#x153;" horiz-adv-x="1814" d="M87 528q0 169 24.5 277t84.5 174t150 92.5t231 26.5q258 0 360 -112q51 64 137 87t228 23q70 0 117.5 -3t98 -12t83 -26t62.5 -46t46.5 -70.5t26.5 -100t10 -135.5q0 -135 -73 -199.5t-222 -64.5h-386q-2 -100 20.5 -154.5t69 -74t130.5 -19.5h49.5h49.5h43t44.5 0.5 t40 1.5t43 2t39.5 2.5t44 3.5t41 5l46 6v-165q-73 -25 -176.5 -38.5t-179 -16t-184.5 -2.5q-180 0 -254 102q-101 -102 -354 -102q-141 0 -234 29t-150.5 95t-81.5 165.5t-24 248.5zM324 528q0 -93 10.5 -154.5t27.5 -98t51.5 -55.5t69.5 -24t94 -5q58 0 96.5 5.5t67.5 22.5 t45 39.5t25.5 67t12 94t2.5 129.5q0 113 -9.5 177.5t-39.5 104.5t-75 52.5t-125 12.5q-53 0 -85.5 -4t-64.5 -17t-49 -37t-30.5 -65.5t-18.5 -100.5t-5 -144zM1065 625h339q104 0 104 88q0 66 -6 100t-29 55.5t-58 27t-102 5.5q-44 0 -72 -2t-58 -8t-47.5 -18t-33.5 -31.5 t-24 -49.5t-11.5 -71t-1.5 -96z" />
<glyph unicode="&#x178;" horiz-adv-x="1325" d="M78 1499h259l327 -743l359 743h259l-502 -1010v-489h-238v489zM305 1747q0 47 34 80.5t81 33.5t80 -33.5t33 -80.5t-33 -81t-80 -34t-81 34t-34 81zM827 1747q0 47 34 80.5t81 33.5t80 -33.5t33 -80.5t-33 -81t-80 -34t-81 34t-34 81z" />
<glyph unicode="&#x2c6;" horiz-adv-x="792" d="M87 1087l227 274h188l204 -274h-174l-130 132l-139 -132h-176zM502 1361z" />
<glyph unicode="&#x2dc;" horiz-adv-x="872" d="M87 1190q66 65 123.5 101.5t121.5 36.5q53 -2 120.5 -36.5t97.5 -34.5q70 -3 188 76l48 -109q-36 -34 -51.5 -47.5t-50.5 -40t-66.5 -37.5t-64.5 -10q-44 2 -85 19.5t-75.5 34t-65.5 16.5t-58.5 -7.5t-43 -14.5t-45 -24.5t-46.5 -25.5z" />
<glyph unicode="&#x2000;" horiz-adv-x="957" />
<glyph unicode="&#x2001;" horiz-adv-x="1915" />
<glyph unicode="&#x2002;" horiz-adv-x="957" />
<glyph unicode="&#x2003;" horiz-adv-x="1915" />
<glyph unicode="&#x2004;" horiz-adv-x="638" />
<glyph unicode="&#x2005;" horiz-adv-x="478" />
<glyph unicode="&#x2006;" horiz-adv-x="319" />
<glyph unicode="&#x2007;" horiz-adv-x="319" />
<glyph unicode="&#x2008;" horiz-adv-x="239" />
<glyph unicode="&#x2009;" horiz-adv-x="383" />
<glyph unicode="&#x200a;" horiz-adv-x="106" />
<glyph unicode="&#x2010;" horiz-adv-x="724" d="M41 489v209h643v-209h-643z" />
<glyph unicode="&#x2011;" horiz-adv-x="724" d="M41 489v209h643v-209h-643z" />
<glyph unicode="&#x2012;" horiz-adv-x="724" d="M41 489v209h643v-209h-643z" />
<glyph unicode="&#x2013;" horiz-adv-x="1050" d="M41 483v211h969v-211h-969z" />
<glyph unicode="&#x2014;" horiz-adv-x="1507" d="M41 487v211h1425v-211h-1425z" />
<glyph unicode="&#x2018;" horiz-adv-x="538" d="M139 1088v246q0 48 13.5 83.5t35.5 54.5t48.5 31t53.5 14.5t49 3t35 -2.5l14 -2v-99q-67 1 -67 -67v-48h24q24 0 39.5 -14t15.5 -40v-160q0 -60 -55 -60h-154q-52 0 -52 60z" />
<glyph unicode="&#x2019;" horiz-adv-x="538" d="M139 1302v160q0 59 55 59h154q52 0 52 -59v-247q0 -48 -14 -83.5t-36 -54.5t-48.5 -31t-53 -14.5t-48.5 -3t-36 1.5l-14 3v98q68 -1 68 69v46h-24q-24 0 -39.5 14.5t-15.5 41.5z" />
<glyph unicode="&#x201a;" horiz-adv-x="538" d="M139 54v160q0 59 55 59h154q52 0 52 -59v-246q0 -48 -14 -84t-36 -55t-48.5 -31t-53 -14.5t-48.5 -3t-36 1.5l-14 3v98q68 -1 68 69v47h-24q-24 0 -39.5 14t-15.5 41z" />
<glyph unicode="&#x201c;" horiz-adv-x="864" d="M127 1086v247q0 48 13.5 83.5t35.5 54.5t48.5 31t53.5 14.5t49 2.5t35 -3l14 -2v-98q-67 1 -67 -68v-46h23q24 0 40 -14.5t16 -40.5v-161q0 -59 -56 -59h-154q-51 0 -51 59zM479 1086v247q0 48 14 83.5t36 54.5t48.5 31t53.5 14.5t49 2.5t36 -3l14 -2v-98q-69 1 -69 -68 v-46h25q24 0 39 -14t15 -41v-161q0 -59 -54 -59h-154q-53 0 -53 59z" />
<glyph unicode="&#x201d;" horiz-adv-x="864" d="M127 1300v160q0 60 53 60h155q53 0 53 -60v-246q0 -65 -26 -108t-63 -57.5t-73.5 -20t-62.5 -1.5l-26 4v98q67 -1 67 69v47h-24q-24 0 -38.5 14t-14.5 41zM479 1300v160q0 60 55 60h154q52 0 52 -60v-246q0 -48 -13.5 -83.5t-35.5 -55t-48.5 -31.5t-53.5 -14.5t-49 -2.5 t-36 2l-13 2v98q67 -1 67 69v47h-24q-24 0 -39.5 14t-15.5 41z" />
<glyph unicode="&#x201e;" horiz-adv-x="864" d="M127 54v160q0 59 53 59h155q53 0 53 -59v-246q0 -48 -14 -84t-36 -55t-48.5 -31t-53.5 -14.5t-49 -3t-36 1.5l-14 3v98q67 -1 67 69v47h-24q-24 0 -38.5 14t-14.5 41zM479 54v160q0 59 55 59h154q52 0 52 -59v-246q0 -66 -25.5 -108.5t-62 -57t-73.5 -20t-63 -1.5l-25 4 v98q67 -1 67 69v47h-24q-24 0 -39.5 14t-15.5 41z" />
<glyph unicode="&#x2022;" horiz-adv-x="634" d="M148 673v214q0 33 17 52.5t50 19.5h202q72 0 72 -72v-214q0 -65 -72 -65h-202q-31 0 -49 17t-18 48z" />
<glyph unicode="&#x2026;" horiz-adv-x="1658" d="M520 47v160q0 51 49 51h152q51 0 51 -51v-160q0 -47 -51 -47h-152q-22 0 -35.5 12.5t-13.5 34.5zM687 47v160q0 51 50 51h151q51 0 51 -51v-160q0 -47 -51 -47h-151q-22 0 -36 13t-14 34zM855 47v160q0 51 49 51h151q51 0 51 -51v-160q0 -47 -51 -47h-151 q-22 0 -35.5 12.5t-13.5 34.5z" />
<glyph unicode="&#x202f;" horiz-adv-x="383" />
<glyph unicode="&#x2039;" horiz-adv-x="729" d="M87 725l422 416l138 -138l-285 -278l293 -287l-136 -139z" />
<glyph unicode="&#x203a;" horiz-adv-x="729" d="M87 438l292 287l-285 278l139 138l422 -416l-432 -426z" />
<glyph unicode="&#x205f;" horiz-adv-x="478" />
<glyph unicode="&#x20ac;" horiz-adv-x="1259" d="M35 515v125l165 14v164l-165 17v116l165 19v5q0 37 0.5 59.5t5 69.5t12.5 79.5t25.5 79t41 78.5t61.5 67.5t86 57t115 36t147 14.5q87 0 250.5 -20.5t272.5 -48.5v-178q-312 30 -480 30q-60 0 -106 -8t-78 -21t-53.5 -37t-33.5 -47t-18.5 -62t-8 -71t-1.5 -83l479 -15 v-122l-479 -15v-164l479 -14v-125q-31 -1 -81 -2t-155.5 -3.5t-175 -5t-67.5 -3.5q0 -89 22.5 -150t65 -94t93.5 -46.5t118 -13.5q85 0 207 10.5t202 20.5l79 11v-172q-210 -79 -531 -79q-39 0 -77.5 4t-89.5 17t-94.5 35t-87.5 61t-75 91.5t-50.5 130.5t-19.5 174z" />
<glyph unicode="&#x2122;" horiz-adv-x="1433" d="M35 1347v152h559v-152h-195v-563h-167v563h-197zM645 784l69 715h171l147 -444l123 444h176l78 -715h-167l-37 391l-99 -391h-144l-120 391l-30 -391h-167z" />
<glyph unicode="&#x25fc;" horiz-adv-x="1085" d="M0 0v1085h1085v-1085h-1085z" />
<glyph unicode="&#xfb03;" horiz-adv-x="2035" d="M35 893v160l202 34v183q0 43 5.5 81t23 83.5t47 78t82.5 54.5t123 22q150 0 287 -49v-145l-209 2q-29 0 -49.5 -4t-33.5 -16.5t-20.5 -23.5t-11.5 -35t-5 -39t-2 -47l-3 -145h506v92q0 186 117 307.5t312 123.5q81 1 229 -19t214 -44v-145l-366 16q-50 2 -93.5 -7.5 t-85 -34.5t-65.5 -77t-24 -127v-85l719 -20v-1067h-239v893h-483v-893h-237v893h-504v-893h-238v893h-198z" />
<glyph unicode="&#xfb04;" horiz-adv-x="2236" d="M35 893v160l202 34v183q0 43 5.5 81t23 83.5t47 78t82.5 54.5t123 22q150 0 287 -49v-145l-209 2q-34 1 -57.5 -7.5t-35.5 -20.5t-18.5 -37t-8 -44t-2.5 -56l-3 -145h510v99q0 207 96.5 314t281.5 107l588 -2v-1189q0 -81 11.5 -125.5t31.5 -63t60 -32.5q139 -43 153 -43 v-152h-216q-148 0 -212.5 87t-64.5 300v1030l-303 1q-97 0 -142.5 -49t-45.5 -183v-99h264v-194h-267v-893h-238v893h-507v-893h-238v893h-198z" />
</font>
</defs>
</svg>
