<?xml version="1.0" standalone="no"?>
<!DOCTYPE svg PUBLIC "-//W3C//DTD SVG 1.1//EN" "http://www.w3.org/Graphics/SVG/1.1/DTD/svg11.dtd" >
<svg xmlns="http://www.w3.org/2000/svg">
<metadata></metadata>
<defs>
<font id="exothin" horiz-adv-x="1130" >
<font-face units-per-em="2048" ascent="1638" descent="-410" />
<missing-glyph horiz-adv-x="573" />
<glyph unicode="&#xfb01;" horiz-adv-x="1216" d="M55 1028v29l201 20v119q0 189 92 301.5t270 112.5q197 0 367 -39v-29l-352 17q-149 6 -238.5 -84.5t-89.5 -278.5v-119l760 -14v-1063h-49v1028h-711v-1028h-49v1028h-201z" />
<glyph unicode="&#xfb02;" horiz-adv-x="1476" d="M55 1038v29l201 20v109q0 86 18.5 158.5t57 131t105 91.5t155.5 33h489v-1217q0 -288 140 -329q15 -5 49 -9q137 -22 151 -22v-27h-137q-130 0 -191 93t-61 294v1168h-430q-140 0 -218.5 -89.5t-78.5 -275.5v-109h301v-49h-301v-1038h-49v1038h-201z" />
<glyph horiz-adv-x="0" />
<glyph unicode="&#xd;" horiz-adv-x="1861" />
<glyph unicode=" "  horiz-adv-x="573" />
<glyph unicode="&#x09;" horiz-adv-x="573" />
<glyph unicode="&#xa0;" horiz-adv-x="573" />
<glyph unicode="!" horiz-adv-x="532" d="M227 25v127q0 24 25 24h22q25 0 25 -24v-127q0 -25 -25 -25h-22q-10 0 -17.5 7t-7.5 18zM240 1497h45l-11 -1096h-24z" />
<glyph unicode="&#x22;" horiz-adv-x="536" d="M141 1362v137h52v-137l-13 -275h-24zM346 1362v137h51v-137l-12 -275h-25z" />
<glyph unicode="#" horiz-adv-x="1339" d="M55 512l4 25h367l66 419h-367l6 25h365l84 518h24l-84 -518h381l82 518h25l-82 -518h362l-4 -25h-364l-66 -421h363l-5 -25h-362l-80 -510h-25l80 510l-381 2l-79 -512h-25l80 512h-365zM451 537l378 -2l66 421h-379z" />
<glyph unicode="$" horiz-adv-x="1198" d="M152 1012v135q0 91 21 157.5t57 107t92 64t117 31t141 4.5v177h36v-179q183 -9 365 -36v-27l-434 16q-85 3 -145.5 -10t-107.5 -47.5t-70 -98.5t-23 -159v-135q0 -75 20.5 -125.5t62 -77.5t93 -38t125.5 -11h213q79 0 138.5 -15.5t96 -41.5t59 -65.5t30.5 -82t8 -96.5 v-140q0 -63 -12.5 -114t-34 -86t-54 -60.5t-67.5 -40t-81 -22.5t-88 -10.5t-94 -1.5v-164h-36v166q-288 9 -392 28v31q135 -12 461 -12q81 0 139.5 11.5t108 41t75 88t25.5 145.5v140q0 132 -65 192t-217 60h-209q-92 0 -158.5 18t-103.5 45.5t-58.5 69.5t-27.5 80t-6 88z " />
<glyph unicode="%" horiz-adv-x="1953" d="M117 971v272q0 136 57 196t207 60h207q146 0 203 -60.5t57 -195.5v-272q0 -136 -57 -196t-207 -60h-207q-146 0 -203 60.5t-57 195.5zM147 971q0 -128 53 -177t177 -49h207q125 0 179 47.5t54 178.5v272q0 123 -50 174t-179 51h-207q-127 0 -180.5 -47t-53.5 -178v-272z M496 0l897 1499h43l-897 -1499h-43zM1108 262v273q0 136 57 196t207 60h207q146 0 203 -60.5t57 -195.5v-273q0 -136 -57 -196t-207 -60h-207q-146 0 -203 60.5t-57 195.5zM1139 262q0 -128 52.5 -176.5t176.5 -48.5h207q125 0 179 47t54 178v273q0 123 -50 174t-179 51 h-207q-127 0 -180 -46.5t-53 -178.5v-273z" />
<glyph unicode="&#x26;" horiz-adv-x="1337" d="M95 375.5q-13 107.5 30.5 202.5t134.5 172l176 149l-129 174q-58 78 -67.5 151t21 124.5t79.5 86.5t109 50q131 32 546 -2v-29h-415q-59 0 -114.5 -14.5t-98.5 -44.5t-65.5 -70.5t-12 -99t58.5 -123.5l592 -803l315 305l19 -16l-141 -176l-160 -152l192 -260h-63 l-168 227l-148 -137q-82 -77 -189.5 -96.5t-218 25t-192.5 149.5q-78 100 -91 207.5zM145.5 470.5q-21.5 -136.5 79.5 -271.5q63 -85 155.5 -127.5t192 -30.5t175.5 82l153 143l-436 590l-160 -133q-138 -116 -159.5 -252.5z" />
<glyph unicode="'" horiz-adv-x="231" d="M91 1362v137h51v-137l-12 -275h-25z" />
<glyph unicode="(" horiz-adv-x="645" d="M207 668q0 157 33.5 327.5t81.5 301.5t95.5 239.5t80.5 166.5l34 58h56q-13 -22 -35.5 -61.5t-80 -162t-101 -245.5t-79.5 -295.5t-36 -328.5q0 -172 34.5 -348.5t83.5 -305t98 -233t84 -157.5l34 -54h-58q-13 18 -35 52.5t-78 147t-99 233t-78 302.5t-35 363z" />
<glyph unicode=")" horiz-adv-x="643" d="M55 -430q13 20 35.5 56t80 153t101 238t79.5 300t36 351q0 156 -34 326t-83 301t-98 240t-83 167l-34 59h56q13 -22 35 -61t78 -161t99 -245t78 -296t35 -330q0 -181 -33.5 -361t-81 -307t-95.5 -228t-82 -152l-33 -50h-56z" />
<glyph unicode="*" horiz-adv-x="960" d="M139 1212v29l291 8v-49zM303 838l68 274l53 -8l-94 -275zM422 1481l27 8l137 -252l-49 -23zM489 1014l25 47l242 -170l-17 -23zM580 1130l229 170l16 -24l-209 -184z" />
<glyph unicode="+" horiz-adv-x="1067" d="M139 705v49h369v370h49v-370h373v-49h-373v-371h-49v371h-369z" />
<glyph unicode="," horiz-adv-x="350" d="M141 27v127q0 26 25 26h20q25 0 25 -26v-230q0 -36 -16.5 -52t-32.5 -14l-17 3v12q33 0 33 31v96h-12q-11 0 -18 7.5t-7 19.5z" />
<glyph unicode="-" horiz-adv-x="692" d="M55 569v49h582v-49h-582z" />
<glyph unicode="." horiz-adv-x="352" d="M141 25v127q0 24 25 24h22q25 0 25 -24v-127q0 -25 -25 -25h-22q-10 0 -17.5 7t-7.5 18z" />
<glyph unicode="/" horiz-adv-x="724" d="M55 -147l576 1724h39l-576 -1724h-39z" />
<glyph unicode="0" horiz-adv-x="1355" d="M193 332v835q0 159 99 245.5t253 86.5h274q178 0 261 -91t83 -241v-835q0 -332 -344 -332h-274q-73 0 -134 18t-111 55.5t-78.5 103.5t-28.5 155zM242 332q0 -138 81 -210.5t222 -72.5h274q295 0 295 283v835q0 139 -74 211t-221 72h-274q-138 0 -220.5 -75t-82.5 -208 v-835z" />
<glyph unicode="1" horiz-adv-x="724" d="M111 1298v27l344 174h49v-1499h-49v1444z" />
<glyph unicode="2" horiz-adv-x="1224" d="M111 1468v31q60 8 125.5 12.5t137 6.5t112.5 2.5t112 0t74 -0.5q216 0 315.5 -114t99.5 -316q0 -60 -28 -132t-70 -139t-109 -147t-125 -141.5t-140.5 -137.5t-133 -120t-124.5 -104t-93 -74.5t-59 -45.5h882v-49h-962v47q13 10 45 36q78 62 127 102t149.5 126.5t169 152 t154.5 158t139 167t90 156t37 147.5q0 105 -25.5 179t-75.5 116.5t-115 61.5t-152 19h-557z" />
<glyph unicode="3" horiz-adv-x="1228" d="M82 1454v29q146 27 590 20q175 -3 263.5 -96t88.5 -242v-141q0 -61 -20 -110.5t-49 -78.5t-64.5 -49.5t-63 -28.5t-49.5 -9q23 -3 51 -13.5t63.5 -34t64 -55.5t48 -83t19.5 -111v-121q0 -344 -365 -344q-455 0 -565 22l4 29h557q66 0 118.5 12.5t99.5 43.5t72.5 91 t25.5 146v121q0 59 -21.5 106.5t-54.5 76.5t-76 49t-82.5 28.5t-77.5 9.5l-438 14v29l438 12q62 1 117 15.5t100.5 43.5t72 77.5t26.5 111.5v141q0 145 -86 217t-221 72h-586z" />
<glyph unicode="4" horiz-adv-x="1177" d="M55 485l629 1014h55l-624 -1016h774v484l20 153h29v-637h184v-28l-184 -21v-430h-49v430h-809z" />
<glyph unicode="5" horiz-adv-x="1329" d="M211 12v29h623q74 0 137 32t105 102.5t42 168.5v195q0 37 -4.5 70.5t-22.5 76.5t-47.5 74t-84 52.5t-128.5 21.5h-313q-94 0 -175 -78.5t-81 -177.5h-49l45 921h866v-49h-819l-35 -702q20 39 89.5 87t164.5 48h310q173 0 253 -90.5t80 -249.5v-203q0 -80 -23 -143.5 t-57.5 -101t-80.5 -61.5t-88 -33t-84 -9q-476 0 -623 20z" />
<glyph unicode="6" horiz-adv-x="1302" d="M180 786q0 154 18.5 277.5t51 206t77.5 138t96 79.5t109 24q397 0 558 -18v-31h-551q-54 0 -99 -24.5t-76.5 -65t-55.5 -96.5t-39 -114.5t-24 -124.5t-12.5 -121t-3.5 -109q191 22 580 22q80 0 139.5 -15.5t95.5 -41t57.5 -65t29.5 -81.5t8 -96v-227q0 -305 -330 -305 h-244q-70 0 -126 22t-105.5 77t-82.5 143t-52 226t-19 320zM229 778q0 -76 3 -141.5t12 -142t24 -138.5t41 -121t60.5 -99t84.5 -64.5t111 -24.5h244q283 0 283 252v231q0 63 -15 108.5t-39 72t-62.5 42t-76.5 20.5t-90 5h-580z" />
<glyph unicode="7" horiz-adv-x="1095" d="M82 1450v49h897l33 -47l-488 -1452h-57l487 1450h-872z" />
<glyph unicode="8" horiz-adv-x="1341" d="M207 315v203q0 55 20.5 101.5t52 73.5t66.5 42t66 15q-205 36 -205 272v133q0 100 26 170.5t75.5 110t112.5 56.5t146 17h238q168 0 250 -84t82 -270v-133q0 -89 -53.5 -163.5t-135.5 -80.5q103 -29 146 -94.5t43 -167.5v-201q0 -76 -22.5 -134.5t-56.5 -91.5t-81 -54 t-88.5 -28t-85.5 -7h-236q-72 0 -130.5 13.5t-95 33.5t-63.5 51t-40.5 57.5t-20.5 61t-8.5 54t-1.5 44.5zM256 309q0 -135 85 -197.5t226 -62.5h236q40 0 78 8t76 27t66.5 48t46 74.5t17.5 102.5v215q0 45 -10.5 80.5t-26 57.5t-41.5 38t-47 24t-54 12t-50.5 4.5t-48.5 0.5 h-264q-40 0 -85.5 -11t-93.5 -34t-79 -68t-31 -104v-215zM256 1012q0 -60 18 -102.5t44 -66t68 -36.5t76.5 -16t82.5 -3h264q71 0 127 21.5t87.5 55.5t47.5 72t16 75v139q0 166 -68 237.5t-214 71.5h-238q-166 0 -238.5 -74t-72.5 -235v-139z" />
<glyph unicode="9" horiz-adv-x="1302" d="M166 969v227q0 305 330 305h243q70 0 126 -22t105.5 -77t82.5 -143t52 -226t19 -320q0 -154 -18.5 -277.5t-51 -206t-77.5 -138t-96 -79.5t-109 -24q-396 0 -557 18v31h551q62 0 112.5 32t83 87.5t56 121.5t35.5 143t17 142t5 129q-191 -22 -579 -22q-80 0 -139.5 15.5 t-95.5 41t-57.5 65t-29.5 81.5t-8 96zM213 969q0 -63 15 -108.5t39 -72t62.5 -42t76.5 -20.5t90 -5h579q0 76 -3 141.5t-12 142t-24 138.5t-41 121t-60.5 99t-84.5 64.5t-111 24.5h-243q-283 0 -283 -252v-231z" />
<glyph unicode=":" horiz-adv-x="362" d="M141 25v127q0 24 25 24h22q25 0 25 -24v-127q0 -25 -25 -25h-22q-10 0 -17.5 7t-7.5 18zM141 932v129q0 24 25 24h22q25 0 25 -24v-129q0 -23 -25 -23h-22q-11 0 -18 6.5t-7 16.5z" />
<glyph unicode=";" horiz-adv-x="352" d="M141 27v127q0 26 25 26h20q25 0 25 -26v-230q0 -36 -16.5 -52t-32.5 -14l-17 3v12q33 0 33 31v96h-12q-11 0 -18 7.5t-7 19.5zM141 932v129q0 24 25 24h22q25 0 25 -24v-129q0 -23 -25 -23h-22q-11 0 -18 6.5t-7 16.5z" />
<glyph unicode="&#x3c;" horiz-adv-x="983" d="M139 707v41l705 393v-56l-643 -358l643 -381v-57z" />
<glyph unicode="=" horiz-adv-x="985" d="M55 434v49h875v-49h-875zM55 965v49h875v-49h-875z" />
<glyph unicode="&#x3e;" horiz-adv-x="983" d="M139 289v57l643 381l-643 358v56l705 -393v-41z" />
<glyph unicode="?" horiz-adv-x="1089" d="M55 1464v29q178 20 516 20q118 2 199 -22t126 -75t64 -118.5t19 -162.5v-207q0 -205 -127.5 -277.5t-419.5 -42.5v-209h-53v250h217q167 0 250.5 64.5t83.5 214.5v207q0 182 -83 255.5t-278 73.5h-514zM369 25v127q0 24 24 24h25q22 0 22 -24v-127q0 -25 -22 -25h-25 q-10 0 -17 7t-7 18z" />
<glyph unicode="@" horiz-adv-x="1773" d="M180 0v713q0 24 1 42.5t8 55.5t19 65.5t38 63t61 56.5t91 37.5t126 15.5h410q59 0 111 -14t99 -44.5t75 -89.5t28 -139v-762h-33l-14 131l-31 -15q-31 -16 -80.5 -38t-107.5 -43.5t-124 -37t-118 -15.5q-114 -3 -189 65.5t-73 173.5v109q0 125 69 198.5t195 73.5h457 q2 154 0 156q0 122 -71 181.5t-199 59.5h-404q-295 0 -295 -286v-713q0 -87 26 -150.5t70 -97.5t93.5 -49.5t105.5 -15.5h654q313 0 313 313v1049q0 151 -79.5 243t-233.5 92h-797v29q121 25 590 21h207q168 -3 265 -100.5t97 -284.5v-1049q0 -365 -362 -365h-654 q-160 0 -252 94.5t-92 270.5zM524 279q0 -45 2 -46q0 -92 62 -147t166 -55q82 -1 215.5 41.5t228.5 87.5v413l-446 -20q-31 -1 -56 -5.5t-58.5 -18.5t-56 -37t-39 -66t-16.5 -100q-2 -2 -2 -47z" />
<glyph unicode="A" horiz-adv-x="1349" d="M125 0l561 1499h70l536 -1499h-53l-186 518h-682l-193 -518h-53zM389 567h645l-313 883z" />
<glyph unicode="B" horiz-adv-x="1226" d="M221 0v1499h518q111 0 188.5 -27t120.5 -79t61.5 -117.5t18.5 -151.5q0 -140 -80 -233.5t-184 -104.5q38 -8 81 -34t87.5 -69t73.5 -113t29 -152q0 -67 -10.5 -124.5t-38.5 -113t-71.5 -94t-114 -62.5t-161.5 -24h-518zM270 51h469q53 0 98.5 9t92.5 33.5t80 64.5 t54 107.5t21 156.5q-1 141 -103 241q-100 97 -235 97h-8h-469v-709zM270 809h469q146 0 241 84t99 231v22q0 158 -81 228q-87 76 -259 76h-469v-641z" />
<glyph unicode="C" horiz-adv-x="1167" d="M152 754q0 125 8 220.5t28 185.5t56.5 152.5t90.5 110t132.5 70.5t181.5 23q173 0 438 -50v-28l-15 2q-15 1 -40.5 3.5t-58.5 5.5t-73.5 6t-81.5 5.5t-86 4t-83 1.5q-94 0 -162.5 -19.5t-124.5 -67.5t-90.5 -129.5t-52.5 -205t-18 -294.5q0 -355 110 -534t340 -179 q96 0 205 6t170 12l61 6v-28q-104 -20 -230 -32.5t-208 -12.5q-111 0 -197 38t-142 104.5t-92 164.5t-51 210t-15 249z" />
<glyph unicode="D" horiz-adv-x="1374" d="M221 0v1499h518q96 0 175 -26.5t133 -69.5t95 -105.5t65 -127.5t38.5 -143.5t19.5 -144.5t5 -139q0 -105 -18.5 -208t-60 -200.5t-101.5 -171t-150.5 -118.5t-200.5 -45h-518zM270 49h469q99 0 181 43.5t136.5 114t92.5 162.5t55 187t17 189q0 355 -125 530t-357 175 h-469v-1401z" />
<glyph unicode="E" horiz-adv-x="1191" d="M221 252v981q0 141 74 205q71 62 174 61h10l608 -20v-29h-608q-209 0 -209 -217v-465l736 -10v-29l-736 -10v-467q0 -54 13.5 -93.5t34 -61.5t53 -34.5t61.5 -16t68 -3.5h587v-29l-585 -20h-21q-44 0 -81 6q-45 8 -88 33.5t-67 80.5t-24 138z" />
<glyph unicode="F" horiz-adv-x="1191" d="M221 0v1233q0 141 74 205q71 62 174 61h10l608 -20v-29h-608q-209 0 -209 -217v-465l736 -10v-29l-736 -10v-719h-49z" />
<glyph unicode="G" horiz-adv-x="1269" d="M152 758q0 99 3 172t14 156.5t30 142.5t52.5 116.5t79.5 92.5t113.5 56.5t153.5 21.5q79 0 240.5 -18t269.5 -38v-39q-2 0 -38 4.5l-92 11.5t-120 13.5t-135 11t-125 4.5q-72 0 -129 -16.5t-98.5 -46.5t-71.5 -78t-49 -103.5t-30 -132.5t-15 -155.5t-4 -179.5 q0 -159 11 -270.5t38 -200t74 -140t116.5 -78t167.5 -26.5q71 0 192.5 25.5t207.5 51.5l86 25v604h-439v29q39 11 95 16t103.5 6t150.5 1q66 0 139 -6v-791h-29l-16 111q-64 -34 -216 -77.5t-274 -43.5h-10q-64 0 -118 12q-57 12 -100.5 33.5t-78 58t-58 75t-40.5 94 t-27 106.5t-15.5 121t-7 129.5t-1.5 138.5z" />
<glyph unicode="H" horiz-adv-x="1359" d="M221 0v1499h49v-749h901v749h50v-1499h-50v700h-901v-700h-49z" />
<glyph unicode="I" horiz-adv-x="409" d="M221 0v1499h49v-1499h-49z" />
<glyph unicode="J" horiz-adv-x="714" d="M96 43l8 29q44 -13 80.5 -21.5t81.5 -12.5q17 -1 32 -1q26 0 48 4q35 6 70 25.5t58 53t37.5 89t14.5 129.5v1161h49v-1161q0 -223 -106 -301q-63 -48 -171 -48h-9q-114 2 -193 54z" />
<glyph unicode="K" horiz-adv-x="1214" d="M221 0v1499h49v-723h312l493 723h60l-508 -747l508 -752h-62l-493 727h-308v-727h-51z" />
<glyph unicode="L" horiz-adv-x="1144" d="M221 258v1241h49v-1241q0 -54 14 -93.5t34.5 -61.5t53 -34.5t61.5 -16t67 -3.5h565v-49h-565q-46 0 -81.5 4.5t-74.5 20t-64.5 42.5t-42 75.5t-16.5 115.5z" />
<glyph unicode="M" horiz-adv-x="1632" d="M152 0l165 1499h74l436 -1415l428 1415h78l172 -1499h-49l-166 1440l-434 -1440h-55l-443 1440l-157 -1440h-49z" />
<glyph unicode="N" horiz-adv-x="1361" d="M221 0v1499h51l902 -1405v1405h49v-1499h-49l-904 1405v-1405h-49z" />
<glyph unicode="O" horiz-adv-x="1382" d="M180 739q0 116 7.5 211t21 169t36 131.5t48 98.5t63 70t74.5 46.5t88 27t99 13t112 3.5q65 0 112.5 -3.5t99 -13t88.5 -27t74.5 -46.5t62.5 -70t48 -98.5t36 -131.5t20.5 -169t7.5 -211q0 -124 -8 -222.5t-26 -174t-42 -131t-60.5 -94.5t-76 -63.5t-95.5 -38t-111 -18.5 t-130 -5q-67 0 -116 3t-101.5 12.5t-89 26.5t-73.5 45t-61.5 68t-46.5 95t-34.5 127.5t-19.5 164.5t-7 205zM229 739q0 -115 6 -205t20.5 -161.5t34.5 -122.5t52 -88.5t67.5 -60.5t87 -36.5t105.5 -18.5t127 -5q80 0 138.5 7t113.5 25.5t92 51.5t69 84.5t49.5 126t27.5 174 t10 229.5q0 124 -7.5 221.5t-25 171t-39 127t-56 90t-69.5 58.5t-87 33.5t-100 15.5t-116 4q-77 0 -124.5 -3.5t-106.5 -18.5t-94 -44t-72.5 -81.5t-57.5 -129t-32.5 -187.5t-12.5 -257z" />
<glyph unicode="P" horiz-adv-x="1196" d="M166 0v1499h565q56 0 100.5 -7t96 -32t85 -67.5t56.5 -119.5t23 -183q0 -68 -8 -124.5t-20 -98t-32.5 -74t-40 -54t-48 -36.5t-51 -23t-55 -12t-53.5 -5t-53 -1q-71 0 -290 8t-226 12v-682h-49zM215 711h516q44 0 79.5 5.5t73 20t64.5 42t49 68t33 102.5q10 57 10 128v13 q0 91 -18 158t-45.5 104.5t-70 60t-82.5 29t-93 6.5h-516v-737z" />
<glyph unicode="Q" horiz-adv-x="1382" d="M180 739q0 116 7.5 211t21 169t36 131.5t48 98.5t63 70t74.5 46.5t88 27t99 13t112 3.5q65 0 112.5 -3.5t99 -13t88.5 -27t74.5 -46.5t62.5 -70t48 -98.5t36 -131.5t20.5 -169t7.5 -211q0 -124 -8 -222.5t-26 -174t-42 -131t-60.5 -94.5t-76 -63.5t-95.5 -38t-111 -18.5 t-130 -5q-67 0 -116 3t-101.5 12.5t-89 26.5t-73.5 45t-61.5 68t-46.5 95t-34.5 127.5t-19.5 164.5t-7 205zM229 739q0 -115 6 -205t20.5 -161.5t34.5 -122.5t52 -88.5t67.5 -60.5t87 -36.5t105.5 -18.5t127 -5q80 0 138.5 7t113.5 25.5t92 51.5t69 84.5t49.5 126t27.5 174 t10 229.5q0 124 -7.5 221.5t-25 171t-39 127t-56 90t-69.5 58.5t-87 33.5t-100 15.5t-116 4q-77 0 -124.5 -3.5t-106.5 -18.5t-94 -44t-72.5 -81.5t-57.5 -129t-32.5 -187.5t-12.5 -257zM713 -68h28q22 -60 64.5 -96.5t94.5 -46.5q38 -7 76 -7h26q51 4 100 21v-49 q-56 -21 -117 -22h-6q-58 0 -111 18q-56 18 -98 65.5t-57 116.5z" />
<glyph unicode="R" horiz-adv-x="1175" d="M166 0v1499h565q56 0 100.5 -7t96 -32t85 -67.5t56.5 -119.5t23 -183q0 -111 -20.5 -191.5t-51 -124.5t-77.5 -70t-86 -33.5t-91 -8.5l330 -662h-52l-331 662q-107 2 -299 9t-199 11v-682h-49zM215 711h516q54 0 95 7.5t83 31t69.5 63.5t44.5 110.5t17 166.5 q0 91 -18 158t-45.5 104.5t-70 60t-82.5 29t-93 6.5h-516v-737z" />
<glyph unicode="S" horiz-adv-x="1200" d="M180 1012v135q0 108 28.5 181.5t84 112.5t123 54.5t159.5 15.5q79 0 228 -12.5t227 -25.5v-27q-58 4 -172 8t-198 6l-85 2h-26q-153 0 -233 -66q-88 -72 -87 -249v-135q0 -78 19.5 -129t61.5 -77.5t93 -36t127 -9.5h234q79 0 138.5 -15.5t96 -41.5t59 -65.5t30.5 -82 t8 -96.5v-140q0 -71 -15 -126t-43.5 -90.5t-63.5 -60t-83 -36.5t-92.5 -17t-100.5 -5q-86 0 -251 9.5t-230 20.5v31q135 -12 481 -12q60 0 107.5 6.5t94.5 25.5t78 49.5t50 82.5t19 122v140q0 132 -65.5 192t-217.5 60h-229q-77 0 -136 10.5t-97 32t-63 47.5t-37.5 62.5 t-17 70t-4.5 78.5z" />
<glyph unicode="T" horiz-adv-x="1236" d="M96 1450v49h1061v-49h-512v-1450h-49v1450h-500z" />
<glyph unicode="U" horiz-adv-x="1398" d="M221 655v844h49v-844q0 -91 5 -166t18 -133t26 -104t38.5 -78.5t45 -56t55.5 -38t60.5 -23t70.5 -12t74.5 -4.5t81.5 -1q76 0 124.5 5.5t108.5 24t96.5 59.5t70.5 107t49.5 172t15.5 248v844h50v-844q0 -108 -10.5 -197t-25.5 -154t-43.5 -115.5t-53 -83.5t-66.5 -55.5 t-71.5 -34t-80.5 -17.5t-80.5 -7t-83.5 -1q-161 0 -227 14q-144 31 -213 160q-84 156 -84 491z" />
<glyph unicode="V" horiz-adv-x="1349" d="M125 1499h53l518 -1450l543 1450h53l-561 -1499h-69z" />
<glyph unicode="W" horiz-adv-x="1988" d="M125 1499h53l518 -1450l502 1450h53l-211 -616l334 -834l508 1450h49l-520 -1499h-70l-327 811l-283 -811h-69z" />
<glyph unicode="X" horiz-adv-x="1157" d="M125 1499h63l422 -704l426 704h64l-457 -756l447 -743h-64l-416 690l-415 -690h-64l449 743z" />
<glyph unicode="Y" horiz-adv-x="1267" d="M125 1499h55l467 -903l508 903h55l-538 -967v-532h-49v532z" />
<glyph unicode="Z" horiz-adv-x="1124" d="M96 0v49l887 1401h-887v49h948v-49l-886 -1401h886v-49h-948z" />
<glyph unicode="[" horiz-adv-x="669" d="M236 -78v1450q0 36 3.5 69.5t13 76t29.5 77t49.5 65t76.5 47.5t106 17h102v-49h-102q-107 0 -168 -74t-61 -229v-1450q0 -64 12 -117t38 -95.5t71.5 -66.5t107.5 -24h102v-49h-102q-59 0 -106 17t-76.5 47.5t-49.5 65t-29.5 77t-13 76t-3.5 69.5z" />
<glyph unicode="\" horiz-adv-x="724" d="M55 1577h39l576 -1724h-39z" />
<glyph unicode="]" horiz-adv-x="669" d="M55 -381h103q62 0 107.5 24t71.5 66.5t38 95.5t12 117v1450q0 155 -61 229t-168 74h-103v49h103q59 0 106 -17t76.5 -47.5t49.5 -65t29.5 -77t13 -76t3.5 -69.5v-1450q0 -36 -3.5 -69.5t-13 -76t-29.5 -77t-49.5 -65t-76.5 -47.5t-106 -17h-103v49z" />
<glyph unicode="^" horiz-adv-x="833" d="M139 1087l271 267h41l245 -267h-37l-229 236l-254 -236h-37zM451 1354z" />
<glyph unicode="_" horiz-adv-x="1347" d="M55 -2v49h1237v-49h-1237z" />
<glyph unicode="`" horiz-adv-x="411" d="M55 1360h54l247 -273h-28z" />
<glyph unicode="a" horiz-adv-x="1064" d="M111 258v125q0 129 72.5 200.5t199.5 71.5q248 -1 372 -1t124 1q1 68 1 102.5t-1 35.5q0 56 -13 102t-42.5 84.5t-83 60.5t-128.5 23h-17q-93 0 -183 -10q-100 -11 -267 -37v28q250 62 469 64h7q133 0 219 -76q88 -78 88 -239v-793h-31l-18 131l-33 -15 q-33 -14 -86.5 -35t-115.5 -42.5t-133.5 -36t-127.5 -14.5q-117 0 -194.5 72t-77.5 198zM160 268q0 -62 20.5 -108.5t54 -72t71 -37.5t77.5 -13h9q71 0 188 29q124 31 212 62l87 32v467l-496 -21q-223 -8 -223 -223v-115z" />
<glyph unicode="b" d="M166 0v1608h45v-586q92 37 209.5 59.5t193.5 22.5q379 0 379 -565q0 -80 -10.5 -154t-37.5 -147.5t-68.5 -127.5t-109 -88t-153.5 -34q-97 0 -227 46t-174 87l-20 -121h-27zM213 150q104 -52 198 -82.5t203 -30.5q142 0 236 125.5t94 376.5q0 122 -18 214.5t-48 149 t-74 91.5t-89.5 48t-100.5 13q-108 0 -191.5 -14.5t-209.5 -47.5v-843z" />
<glyph unicode="c" horiz-adv-x="1026" d="M139 545q0 139 17.5 239.5t47 160.5t77 95t97.5 46.5t118 11.5q169 0 405 -54v-28q-223 33 -405 33q-61 0 -104 -10.5t-84 -42.5t-65.5 -87.5t-39.5 -148.5t-15 -223q0 -123 15.5 -213.5t41.5 -144.5t67 -86t84 -43t100 -11q84 0 189.5 10.5t168.5 21.5l64 11v-33 q-122 -34 -206.5 -45.5t-215.5 -13.5q-67 0 -116 11.5t-96.5 46.5t-77.5 95t-48.5 161.5t-18.5 240.5z" />
<glyph unicode="d" d="M139 539q0 565 377 565q76 0 195 -22.5t211 -59.5v586h43v-1608h-27l-20 121q-44 -41 -174 -87t-228 -46q-86 0 -153 34t-108.5 87.5t-68 128t-37 148t-10.5 153.5zM188 539q0 -134 26.5 -234t73 -157t103.5 -84t125 -27q109 0 204 30.5t198 82.5v843q-126 33 -210 47.5 t-192 14.5q-56 0 -100.5 -12t-88.5 -46.5t-73.5 -90.5t-47.5 -149.5t-18 -217.5z" />
<glyph unicode="e" horiz-adv-x="1077" d="M139 549q0 121 9 207t31.5 147.5t52.5 98.5t80 58.5t104.5 28.5t136.5 7q61 0 102 -2.5t88 -11t77.5 -24.5t61 -44.5t47.5 -69t27.5 -99t10.5 -134.5q0 -115 -68 -157t-211 -42h-500q0 -121 15.5 -208t41 -137.5t67 -80t83.5 -38.5t101 -9q88 0 173.5 6.5t126 12.5 t150.5 22v-33q-121 -35 -220 -47q-85 -11 -194 -10h-36q-105 2 -173.5 32t-109.5 99.5t-57.5 171t-16.5 256.5zM188 559h500q41 0 68.5 2t61 10.5t53.5 24t33.5 45t13.5 70.5q0 65 -8 115t-21.5 86t-38.5 60.5t-51.5 39t-68 22.5t-80.5 10.5t-97 2.5q-76 0 -126.5 -6.5 t-94.5 -25.5t-69 -52t-43.5 -88.5t-25 -131t-6.5 -184.5z" />
<glyph unicode="f" horiz-adv-x="786" d="M55 1038v29l178 20v203q0 30 1 53t5 58.5t11 61.5t21.5 55.5t34 48t50 31t68.5 12.5q222 0 307 -23v-26h-291q-41 0 -70 -13.5t-45.5 -35t-26 -58.5t-12.5 -74t-3 -90v-203h364v-49h-364v-1038h-50v1038h-178z" />
<glyph unicode="g" horiz-adv-x="1171" d="M125 -45l25 215q-19 26 -19 76q0 52 45.5 94t128.5 45q-54 22 -91.5 57.5t-55 81t-24.5 88t-7 93.5q0 203 83 295t269 92h639v-29l-227 -21q125 -91 125 -337q0 -43 -7 -84.5t-29 -91.5t-57 -87t-98.5 -62.5t-146.5 -25.5h-320q-14 0 -32 -1.5t-46 -9t-50 -19t-38 -34 t-16 -52.5q0 -55 55 -85t109 -30h422q142 0 219.5 -74t77.5 -199v-108q0 -295 -307 -295h-308q-147 0 -233 82.5t-86 232.5v193zM176 135v-373q0 -65 20.5 -115t50 -78t68.5 -45t69.5 -22.5t59.5 -5.5h308q119 0 188.5 55.5t69.5 190.5v108q0 100 -59 163t-189 63h-418 q-49 0 -91 15t-59 29zM176 705q0 -299 289 -299h209q80 0 138.5 25t91.5 68t48 94.5t15 111.5q0 164 -60.5 250.5t-144.5 86.5h-303q-82 0 -138.5 -23.5t-87.5 -70t-44 -105t-13 -138.5z" />
<glyph unicode="h" d="M166 0v1606h49v-645q221 145 442 145q155 0 245.5 -102.5t90.5 -245.5v-758h-49v758q0 132 -76.5 215.5t-210.5 83.5q-127 0 -222.5 -29t-219.5 -96v-932h-49z" />
<glyph unicode="i" horiz-adv-x="348" d="M139 1274v127q0 24 25 24h22q23 0 23 -24v-127q0 -25 -23 -25h-22q-10 0 -17.5 7.5t-7.5 17.5zM147 0v1087h50v-1087h-50z" />
<glyph unicode="j" horiz-adv-x="403" d="M166 1274v127q0 24 24 24h23q25 0 25 -24v-127q0 -25 -25 -25h-23q-10 0 -17 7t-7 18zM178 -553v1640h49v-1095q1 -48 1 -92q0 -290 -23 -453h-27z" />
<glyph unicode="k" horiz-adv-x="1019" d="M166 0v1602h49v-953h123l549 438h78l-578 -464l576 -623h-72l-553 600h-123v-600h-49z" />
<glyph unicode="l" horiz-adv-x="610" d="M166 387v1217h49v-1217q0 -52 5 -96t11.5 -75.5t19.5 -57.5t22 -42t27 -29t26.5 -18.5t28.5 -10.5t25 -6t23 -3q138 -22 152 -22v-27h-137q-130 0 -191 93t-61 294z" />
<glyph unicode="m" horiz-adv-x="1906" d="M166 0v1087h29l20 -126q221 145 442 145q101 0 176 -45.5t117 -122.5q86 65 226.5 116.5t257.5 51.5q155 0 245 -102.5t90 -245.5v-758h-49v758q0 127 -77 213t-209 86q-119 0 -233 -38t-240 -106q32 -78 32 -155v-758h-49v758q0 127 -77.5 213t-209.5 86 q-127 0 -222.5 -29t-219.5 -96v-932h-49z" />
<glyph unicode="n" d="M166 0v1087h29l20 -126q221 145 442 145q155 0 245.5 -102.5t90.5 -245.5v-758h-49v758q0 127 -77.5 213t-209.5 86q-127 0 -222.5 -29t-219.5 -96v-932h-49z" />
<glyph unicode="o" horiz-adv-x="1173" d="M139 528q0 223 45 346.5t139.5 173.5t262.5 50q132 0 219.5 -34t138.5 -108t71.5 -176t20.5 -252q0 -301 -97 -419.5t-353 -118.5q-136 0 -222 28.5t-136.5 96t-69.5 164.5t-19 249zM188 528q0 -128 17.5 -216.5t47 -142t82 -82.5t109 -38.5t142.5 -9.5q84 0 143 11 t110.5 42t82.5 85t48 141t17 210q0 94 -9.5 168.5t-26.5 129t-44 94t-58.5 64.5t-74.5 39.5t-87 20t-101 5.5q-59 0 -100 -4t-86 -16.5t-74.5 -35t-57.5 -61t-44.5 -93.5t-26 -132.5t-9.5 -178.5z" />
<glyph unicode="p" d="M166 -549v1636h27l22 -120q44 41 173 87t226 46q86 0 153.5 -34t109 -88t68.5 -127.5t37.5 -147.5t10.5 -154q0 -565 -379 -565q-76 0 -192.5 22.5t-208.5 59.5v-615h-47zM215 94q125 -33 208 -47t191 -14q55 0 100.5 13t89.5 48t74 91.5t48 149t18 214.5 q0 251 -94 376.5t-236 125.5q-109 0 -201.5 -30t-197.5 -83v-844z" />
<glyph unicode="q" horiz-adv-x="1142" d="M139 549q0 264 94.5 407.5t282.5 143.5q307 0 463 -25v-1628h-49v612q-91 -37 -213 -58t-201 -21q-92 0 -159.5 29t-108.5 77.5t-66 123t-34 155t-9 184.5zM188 549q0 -262 73 -391t255 -129q107 0 190 13.5t224 49.5v959h-414q-72 0 -128.5 -25.5t-93.5 -70t-61 -108.5 t-34.5 -137.5t-10.5 -160.5z" />
<glyph unicode="r" horiz-adv-x="868" d="M166 0v1087h24l25 -137q62 35 100 55t98.5 45.5t121.5 37.5t127 12q101 0 151 -17v-47q-73 15 -151 15q-44 0 -87.5 -6.5t-72 -12.5t-75.5 -25t-64 -26.5t-75 -36t-73 -35.5v-909h-49z" />
<glyph unicode="s" horiz-adv-x="1032" d="M111 743v95q0 131 64.5 195.5t217.5 64.5q86 0 242 -6t231 -13v-28h-473q-127 0 -180 -50.5t-53 -162.5v-95q0 -29 3.5 -52.5t8 -41t15 -31t19.5 -22.5t27 -15t31 -9t38 -4.5t42 -2t49 -0.5h262q121 0 194 -60.5t73 -172.5v-101q0 -64 -16 -110.5t-39.5 -71t-62 -38.5 t-71 -17.5t-78.5 -3.5q-78 0 -260.5 7t-238.5 13v29h499q27 0 43 0.5t41.5 4.5t41.5 11t35.5 21t30 34t18 51t7.5 70v101q0 79 -56.5 131.5t-160.5 52.5h-262q-55 0 -88.5 2t-69.5 10t-56 22.5t-37 39.5t-24 62.5t-7 90.5z" />
<glyph unicode="t" horiz-adv-x="716" d="M55 1040v33l172 17l17 303h32v-303h359v-50h-359v-655q0 -89 14.5 -154.5t31 -98t48 -53t46.5 -24t44 -7.5q3 -1 5 -1q137 -22 151 -22v-27h-137q-130 0 -191 93t-61 294v655h-172z" />
<glyph unicode="u" d="M139 332v758h49v-758q0 -127 77.5 -213t209.5 -86q127 0 223 29t220 96v932h49v-1088h-29l-20 127q-221 -145 -443 -145q-155 0 -245.5 102.5t-90.5 245.5z" />
<glyph unicode="v" horiz-adv-x="1064" d="M55 1087h49l424 -1019l433 1019h49l-455 -1087h-53z" />
<glyph unicode="w" horiz-adv-x="1591" d="M55 1087h51l402 -1026l391 1026h49l-151 -407l278 -619l414 1026h47l-434 -1087h-53l-277 623l-237 -623h-54z" />
<glyph unicode="x" horiz-adv-x="983" d="M66 0l393 545l-393 542h65l361 -497l360 497h66l-394 -542l394 -545h-66l-360 498l-361 -498h-65z" />
<glyph unicode="y" horiz-adv-x="1083" d="M57 1087h54l303 -849q55 -153 159 -183q33 -9 48 -4l350 1036h51l-477 -1431l-94 -209h-25l178 553q-18 1 -35.5 4t-48.5 16.5t-56.5 36t-53 66t-45.5 102.5z" />
<glyph unicode="z" horiz-adv-x="972" d="M82 1038v49h811v-49l-717 -987h717v-49h-778v49l712 987h-745z" />
<glyph unicode="{" horiz-adv-x="622" d="M55 655v56q185 16 185 149v483q0 64 7.5 116t29.5 103t57.5 85.5t94.5 55.5t138 21v-49q-141 0 -209.5 -75.5t-68.5 -256.5v-483q0 -71 -47.5 -119t-116.5 -57q67 -9 114.5 -57.5t47.5 -112.5v-592q0 -169 67.5 -236t212.5 -67v-49q-63 0 -114 11.5t-85 30t-58.5 47 t-38 57t-21.5 67t-10 69t-2 70.5v584q0 69 -58 111.5t-125 37.5z" />
<glyph unicode="|" horiz-adv-x="520" d="M238 -147v1724h49v-1724h-49z" />
<glyph unicode="}" horiz-adv-x="622" d="M55 -381q146 0 213.5 67t67.5 236v592q0 64 47.5 112.5t114.5 57.5q-69 9 -116.5 57t-47.5 119v483q0 181 -69 256.5t-210 75.5v49q79 0 138.5 -21t95 -55.5t57 -85.5t29.5 -103t8 -116v-483q0 -133 184 -149v-56q-66 5 -124 -37.5t-58 -111.5v-584q0 -40 -2 -70.5 t-10 -69t-21.5 -67t-38.5 -57t-59 -47t-85 -30t-114 -11.5v49z" />
<glyph unicode="~" horiz-adv-x="968" d="M139 1171q46 40 72 60t67 39.5t78 19.5q27 0 65 -23.5t69.5 -51t66.5 -51t57 -23.5q35 0 75.5 19t65 37.5t56.5 44.5q5 5 8 7l12 -14q-42 -42 -69 -65t-67.5 -42.5t-80.5 -19.5q-29 0 -67 23.5t-69 51t-65.5 51t-56.5 23.5q-16 0 -31.5 -2.5t-32 -9t-27.5 -11.5 t-30 -17.5t-27 -18t-31 -22t-30 -21.5z" />
<glyph unicode="&#xa1;" horiz-adv-x="546" d="M229 793v129q0 20 25 20h22q25 0 25 -20v-129q0 -27 -25 -27h-22q-11 0 -18 8t-7 19zM244 -553l10 1098h25l10 -1098h-45z" />
<glyph unicode="&#xa2;" horiz-adv-x="999" d="M111 545q0 144 19 246t50.5 161.5t84.5 92.5t106.5 43t132.5 10v168h37v-170q163 -10 333 -52v-28q-223 33 -405 33q-61 0 -104 -10.5t-84.5 -42.5t-66 -87.5t-39.5 -148.5t-15 -223q0 -123 15.5 -213.5t42 -144.5t67.5 -86t84 -43t100 -11q84 0 189 10.5t168 21.5l63 11 v-33q-177 -52 -348 -57v-160h-37v158q-55 0 -96 4.5t-84.5 18.5t-73.5 38.5t-58 66t-44.5 99.5t-26.5 140.5t-10 187.5z" />
<glyph unicode="&#xa3;" horiz-adv-x="1230" d="M139 0v29l148 20v668h-148v28l148 17v272q0 92 12.5 163.5t32.5 120.5t55 83t69.5 53t88 29.5t98.5 13t111 2.5q52 0 137 -4.5t144 -8.5l59 -5v-29h-336q-76 0 -127 -5t-103 -19.5t-84.5 -43t-58.5 -74.5t-37.5 -114.5t-11.5 -161.5v-272l594 -17v-28h-594v-668h754v-49 h-951z" />
<glyph unicode="&#xa4;" horiz-adv-x="954" d="M141 967l19 18l94 -96q94 88 225 88q128 0 221 -80l93 90l18 -20l-90 -88q94 -94 94 -234q0 -133 -84 -233l78 -78l-21 -19l-73 78q-97 -100 -236 -100q-144 0 -239 106l-80 -80l-17 17l80 82q-78 97 -78 227q0 131 93 227zM176 643q0 -131 87.5 -225t215.5 -94 t216.5 94.5t88.5 224.5q0 127 -88.5 215t-216.5 88q-125 0 -214 -89t-89 -214z" />
<glyph unicode="&#xa5;" horiz-adv-x="1196" d="M55 1499h60l463 -790l501 790h62l-537 -842h422v-28h-424v-195h424v-28h-424v-406h-49v406h-401v28h401v195h-401v28h399z" />
<glyph unicode="&#xa6;" horiz-adv-x="524" d="M238 -147v671h49v-671h-49zM238 879v698h49v-698h-49z" />
<glyph unicode="&#xa7;" horiz-adv-x="1144" d="M152 723v127q0 80 24.5 129.5t87.5 60.5q-59 11 -85.5 58.5t-26.5 109.5v144q0 72 22.5 124t62 79t84 39t97.5 12q77 0 260 -7.5t240 -13.5v-29h-500q-118 0 -167.5 -54t-49.5 -150v-144q0 -91 49.5 -119t167.5 -28h305q87 0 140.5 -10.5t83 -37.5t39.5 -63.5t9 -97.5 v-127q0 -37 -3 -63t-13 -54.5t-32.5 -45t-57.5 -19.5q29 -6 49 -19.5t30.5 -28.5t16.5 -38t7 -39.5t1 -42.5v-150q0 -64 -17.5 -110.5t-43 -71t-66.5 -38.5t-74.5 -17.5t-80.5 -3.5q-77 0 -252 7t-232 13v29h484q118 0 175.5 42t57.5 150v150q0 65 -13.5 93t-59.5 41 t-148 13h-305h-17h-50t-43.5 2t-40.5 5.5t-33 10t-29.5 16.5t-22 25t-17.5 35t-9 47t-4 60zM201 723q0 -23 1 -41t6 -33t8 -26t13.5 -19.5t16.5 -14t22.5 -9t25.5 -5.5t32.5 -3t36.5 -1h43h12h305q56 0 87 1t59 7.5t40 15t21.5 27.5t11.5 41.5t2 61.5v127q0 69 -17.5 102 t-63 46.5t-140.5 13.5h-305q-37 0 -53.5 -0.5t-43.5 -2.5t-39 -6t-29 -12t-24 -20t-15 -29.5t-10.5 -41t-2.5 -54.5v-125z" />
<glyph unicode="&#xa8;" horiz-adv-x="868" d="M139 1192q0 15 10 25t25 10t25 -10t10 -25t-10 -26t-25 -11t-25 11t-10 26zM659 1192q0 15 11 25t26 10t25 -10t10 -25t-10 -26t-25 -11t-26 11t-11 26z" />
<glyph unicode="&#xa9;" horiz-adv-x="1769" d="M152 754q0 75 6.5 146.5t22.5 147t41 140t64 123t89 99.5t119 65t151 24h524q83 0 151 -28.5t113.5 -74t80 -111t54 -131t31.5 -142.5t15.5 -136.5t3.5 -121.5q0 -121 -16.5 -230.5t-52.5 -205.5t-88 -166.5t-127 -111t-165 -40.5h-524q-91 0 -167.5 36.5t-128.5 98.5 t-91.5 138.5t-62 163.5t-33 165.5t-10.5 151.5zM180 754q-1 -99 16 -199t54.5 -195t91.5 -168.5t132.5 -118t170.5 -44.5h524q181 0 300.5 191.5t119.5 533.5q0 121 -14 225t-45.5 195.5t-79 156.5t-119.5 102t-162 37h-524q-72 0 -135.5 -20.5t-124.5 -72t-104.5 -131 t-71 -205.5t-29.5 -287zM512 748q0 234 80 340t215 106q163 0 364 -35v-18q-172 24 -364 24q-266 0 -266 -424q0 -203 62.5 -307t203.5 -104q243 0 377 32v-18q-152 -43 -377 -43q-65 0 -115 19.5t-92.5 67t-65 138.5t-22.5 222z" />
<glyph unicode="&#xaa;" horiz-adv-x="737" d="M82 596v27h573v-27h-573zM82 948v94q0 84 55 134.5t150 50.5q331 -2 331 0q2 63 0 65q0 95 -53.5 142t-167.5 47q-137 0 -291 -33v20q133 43 308 45q105 2 171 -50.5t66 -159.5v-529h-20l-13 100l-22 -11q-22 -11 -57.5 -27t-77 -32t-89 -27t-85.5 -11q-85 0 -145 48.5 t-60 133.5zM117 954q0 -80 49.5 -117.5t132.5 -37.5q55 0 134.5 24.5t132.5 48.5l52 25v309l-319 -8q-182 0 -182 -168v-76z" />
<glyph unicode="&#xab;" horiz-adv-x="1122" d="M139 725l418 418l37 -35l-385 -383l397 -391l-37 -37zM516 725l422 418l33 -35l-385 -383l397 -391l-37 -37z" />
<glyph unicode="&#xac;" horiz-adv-x="1089" d="M139 575v50h811v-299h-49v249h-762z" />
<glyph unicode="&#xad;" horiz-adv-x="753" d="M55 569v49h643v-49h-643z" />
<glyph unicode="&#xae;" horiz-adv-x="1769" d="M152 754q0 75 6.5 146.5t22.5 147t41 140t64 123t89 99.5t119 65t151 24h524q83 0 151 -28.5t113.5 -74t80 -111t54 -131t31.5 -142.5t15.5 -136.5t3.5 -121.5q0 -121 -16.5 -230.5t-52.5 -205.5t-88 -166.5t-127 -111t-165 -40.5h-524q-91 0 -167.5 36.5t-128.5 98.5 t-91.5 138.5t-62 163.5t-33 165.5t-10.5 151.5zM180 754q-1 -99 16 -199t54.5 -195t91.5 -168.5t132.5 -118t170.5 -44.5h524q181 0 300.5 191.5t119.5 533.5q0 121 -14 225t-45.5 195.5t-79 156.5t-119.5 102t-162 37h-524q-72 0 -135.5 -20.5t-124.5 -72t-104.5 -131 t-71 -205.5t-29.5 -287zM584 313v875h362q44 0 78.5 -6t68.5 -22.5t56.5 -44.5t36.5 -75t14 -110q0 -43 -7.5 -77t-18 -56.5t-29 -38.5t-33.5 -24.5t-38 -14t-36.5 -6.5t-36 -2t-28.5 -2l227 -396h-35l-227 394l-326 10v-404h-28zM612 735h346q56 0 92.5 7.5t65.5 27.5 t42 59t13 99q0 126 -54 178.5t-159 52.5h-346v-424z" />
<glyph unicode="&#xaf;" horiz-adv-x="792" d="M139 1087v31h516v-31h-516z" />
<glyph unicode="&#xb0;" horiz-adv-x="692" d="M139 1294q0 88 61.5 149.5t147.5 61.5t145.5 -61.5t59.5 -149.5t-59.5 -148.5t-145.5 -60.5q-87 0 -148 61t-61 148zM168 1294q0 -73 53 -125.5t127 -52.5q73 0 124.5 52t51.5 126t-51.5 127.5t-124.5 53.5t-126.5 -53.5t-53.5 -127.5z" />
<glyph unicode="&#xb1;" horiz-adv-x="1095" d="M156 281v49h790v-49h-790zM156 842v49h370v371h49v-371h371v-49h-371v-371h-49v371h-370z" />
<glyph unicode="&#xb2;" horiz-adv-x="841" d="M85 1699l1 3q28 3 53.5 5.5t56.5 4t46 2.5t54 1.5t48 0.5h59h58q266 0 266 -278q0 -236 -549 -659q-4 -4 -6 -5.5t-5 -3.5t-5 -4h563v-37h-633v29q3 2 63.5 50.5t89 72.5t94.5 81t104 94.5t91 95t82 100.5t50.5 92t21.5 88q0 57 -10 98.5t-35 77t-73.5 53.5t-120.5 18 h-363q-5 0 -1 20z" />
<glyph unicode="&#xb3;" horiz-adv-x="894" d="M82 1669v21q15 3 32.5 5.5t39 4t38.5 2.5t45.5 2t44.5 1.5t49.5 0.5h48h52.5h51q126 0 187 -62.5t61 -162.5v-72q0 -41 -19.5 -77.5t-48 -58.5t-56 -35t-46.5 -15q19 -4 45 -17.5t55.5 -37t49.5 -62.5t20 -84v-57q0 -118 -58 -181t-202 -63q-276 0 -381 22v15h365 q130 0 183.5 46t53.5 169v47q0 86 -70 134t-159 50l-291 8v21l291 8q99 3 166 49.5t67 120.5v72q0 186 -217 186h-397z" />
<glyph unicode="&#xb4;" horiz-adv-x="411" d="M55 1087l248 273h53l-272 -273h-29z" />
<glyph unicode="&#xb5;" horiz-adv-x="1269" d="M250 332v758h49v-758q0 -127 77.5 -213t209.5 -86q127 0 222.5 29t219.5 96v932h49v-1088h-28l-21 127q-221 -145 -442 -145q-98 0 -172 42.5t-115 114.5v-694h-49v885z" />
<glyph unicode="&#xb6;" horiz-adv-x="1171" d="M111 1022v190q0 93 47.5 160t118.5 97t153 30h686v-53h-141v-1446h-49v1450h-336v-2003h-49v1301q-33 -24 -111 -21q-152 0 -235.5 84t-83.5 211zM160 1026q0 -63 23 -111t55 -73.5t73 -41.5t68.5 -20t50.5 -4h111v674h-111q-126 0 -198 -68.5t-72 -173.5v-182z" />
<glyph unicode="&#xb7;" horiz-adv-x="540" d="M236 770v25q0 24 24 24h23q24 0 24 -24v-25q0 -25 -24 -25h-23q-10 0 -17 7t-7 18z" />
<glyph unicode="&#xb8;" horiz-adv-x="546" d="M139 -340l66 10q39 6 60.5 11.5t46 21t36 41t19 70.5t6.5 110h35q0 -159 -41.5 -218.5t-165.5 -59.5h-62v14z" />
<glyph unicode="&#xb9;" horiz-adv-x="522" d="M45 1573v18l262 113h37v-975h-37v938z" />
<glyph unicode="&#xba;" horiz-adv-x="780" d="M82 1126q0 76 5 129.5t18 98.5t35 73t57 47t82.5 27t113.5 8q79 0 131.5 -12.5t87 -37.5t52.5 -73t25 -107.5t7 -152.5q0 -70 -4.5 -118.5t-16.5 -91.5t-33 -69.5t-55 -46.5t-81.5 -28t-112.5 -8q-78 0 -132 13t-89.5 38.5t-55 70.5t-27 101t-7.5 139zM106 596v27h574 v-27h-574zM115 1126q0 -196 55.5 -262.5t222.5 -66.5q66 0 108.5 7.5t76.5 27.5t51.5 58t26 94.5t8.5 141.5q0 73 -4 123t-15.5 91.5t-30 66t-49.5 41t-72 23t-100 6.5q-57 0 -95.5 -5t-71.5 -19.5t-52.5 -38t-33.5 -63.5t-19.5 -94t-5.5 -131z" />
<glyph unicode="&#xbb;" horiz-adv-x="1122" d="M139 334l398 391l-385 383l32 35l422 -418l-430 -428zM516 334l397 391l-385 383l37 35l418 -418l-430 -428z" />
<glyph unicode="&#xbc;" horiz-adv-x="1794" d="M45 1368v18l262 113h37v-975h-37v938zM434 0l791 1577h37l-791 -1577h-37zM985 362l389 611h41l-377 -592h543v248l18 98h19v-346h121v-16l-121 -23v-340h-37v340h-588z" />
<glyph unicode="&#xbd;" horiz-adv-x="1933" d="M45 1368v18l262 113h37v-975h-37v938zM408 0l790 1577h37l-791 -1577h-36zM1181 972l1 3q28 3 53.5 5.5t56 4t46 2.5t54.5 1.5t47.5 0.5h58.5h58q267 0 267 -278q0 -236 -549 -659q-13 -10 -17 -13h564v-37h-633v29q3 2 63.5 50.5t89 72.5t94.5 81t104 94.5t91 95 t82 100.5t50.5 92t21.5 88q0 119 -51.5 183t-188.5 64h-362q-5 0 -1 20z" />
<glyph unicode="&#xbe;" horiz-adv-x="2050" d="M82 1464v21q15 3 32.5 5.5t39 4t38.5 2.5t45.5 2t44.5 1.5t49.5 0.5h48h52.5h51q126 0 187 -62.5t61 -162.5v-72q0 -41 -19.5 -77.5t-48 -58.5t-56 -35t-46.5 -15q19 -4 45 -17.5t55.5 -37t49.5 -62.5t20 -84v-57q0 -118 -58 -181t-202 -63q-271 0 -381 23v14h365 q130 0 183.5 46t53.5 169v47q0 86 -70 134t-159 50l-291 9v20l291 8q99 3 166 49.5t67 120.5v72q0 186 -217 186h-397zM676 0l790 1577h37l-790 -1577h-37zM1155 362l389 611h41l-377 -592h541v248l20 98h17v-346h123v-16l-123 -23v-340h-37v340h-586z" />
<glyph unicode="&#xbf;" horiz-adv-x="1085" d="M109 37q0 205 127 277t419 42v209h54v-250h-217q-167 0 -250.5 -64t-83.5 -214v-209q0 -182 82.5 -255t277.5 -73h514v-28q-187 -21 -516 -21q-119 -2 -199.5 21.5t-125.5 74.5t-63.5 118.5t-18.5 162.5v209zM647 811v127q0 25 23 25h24q10 0 17.5 -7.5t7.5 -17.5v-127 q0 -25 -25 -25h-24q-23 0 -23 25z" />
<glyph unicode="&#xc0;" horiz-adv-x="1349" d="M125 0l561 1499h70l536 -1499h-53l-186 518h-682l-193 -518h-53zM389 567h645l-313 883zM434 1905h53l248 -273h-28z" />
<glyph unicode="&#xc1;" horiz-adv-x="1349" d="M125 0l561 1499h70l536 -1499h-53l-186 518h-682l-193 -518h-53zM389 567h645l-313 883zM707 1632l247 273h54l-273 -273h-28z" />
<glyph unicode="&#xc2;" horiz-adv-x="1349" d="M125 0l561 1499h70l536 -1499h-53l-186 518h-682l-193 -518h-53zM389 567h645l-313 883zM442 1632l271 266h41l245 -266h-36l-230 236l-254 -236h-37z" />
<glyph unicode="&#xc3;" horiz-adv-x="1349" d="M125 0l561 1499h70l536 -1499h-53l-186 518h-682l-193 -518h-53zM375 1696q46 40 72 60t67 39.5t78 19.5q34 0 84.5 -37.5t98.5 -75t75 -37.5q73 0 182 89q4 4 13 12l10 8l12 -15q-42 -42 -69 -65t-67.5 -42.5t-80.5 -19.5q-29 0 -67 23.5t-69 51.5t-65.5 51.5 t-56.5 23.5q-19 0 -38.5 -5t-32.5 -9.5t-36 -18t-31 -19t-36.5 -26t-34.5 -25.5zM389 567h645l-313 883z" />
<glyph unicode="&#xc4;" horiz-adv-x="1349" d="M125 0l561 1499h70l536 -1499h-53l-186 518h-682l-193 -518h-53zM389 567h645l-313 883zM425 1669q0 15 10 25t25 10t25 -10t10 -25t-10 -26t-25 -11t-25 11t-10 26zM945 1669q0 15 11 25t26 10t25 -10t10 -25t-10 -26t-25 -11t-26 11t-11 26z" />
<glyph unicode="&#xc5;" horiz-adv-x="1349" d="M125 0l561 1499h70l536 -1499h-53l-186 518h-682l-193 -518h-53zM389 567h645l-313 883zM514 1704q0 88 61.5 149.5t147.5 61.5t145.5 -61.5t59.5 -149.5t-59.5 -148.5t-145.5 -60.5q-87 0 -148 61t-61 148zM543 1704q0 -73 53 -125.5t127 -52.5q73 0 124.5 52t51.5 126 t-51.5 127.5t-124.5 53.5t-126.5 -53.5t-53.5 -127.5z" />
<glyph unicode="&#xc6;" horiz-adv-x="1910" d="M82 0l770 1208q89 140 121 178q70 84 161 105q52 11 123 8l549 -20v-29h-549q-53 0 -89.5 -5.5t-59.5 -17t-36 -26.5t-18 -38t-6 -47t0 -57q1 -31 1 -47v-444l675 -10v-29l-675 -10v-467q0 -54 13.5 -93.5t34 -61.5t52.5 -34.5t61 -16t68 -3.5h528v-29l-528 -20 q-45 -1 -80 2.5t-74 19t-65 42t-43 75t-17 115.5v268h-528l-328 -516h-61zM504 565h495v781z" />
<glyph unicode="&#xc7;" horiz-adv-x="1167" d="M152 754q0 125 8 220.5t28 185.5t56.5 152.5t90.5 110t132.5 70.5t181.5 23q173 0 438 -50v-28l-15 2q-15 1 -40.5 3.5t-58.5 5.5t-73.5 6t-81.5 5.5t-86 4t-83 1.5q-94 0 -162.5 -19.5t-124.5 -67.5t-90.5 -129.5t-52.5 -205t-18 -294.5q0 -355 110 -534t340 -179 q96 0 205 6t170 12l61 6v-28q-104 -20 -230 -32.5t-208 -12.5q-111 0 -197 38t-142 104.5t-92 164.5t-51 210t-15 249zM436 -338l66 10q39 6 60.5 11.5t46 21t36 41t19 70.5t6.5 110h35q0 -159 -41.5 -218.5t-165.5 -59.5h-62v14z" />
<glyph unicode="&#xc8;" horiz-adv-x="1191" d="M221 252v981q0 140 74 204.5t184 61.5l608 -20v-29h-608q-209 0 -209 -217v-465l736 -10v-29l-736 -10v-467q0 -54 13.5 -93.5t34 -61.5t53 -34.5t61.5 -16t68 -3.5h587v-29l-585 -20q-57 -2 -102 6.5t-88 33.5t-67 80t-24 138zM410 1894h53l248 -272h-29z" />
<glyph unicode="&#xc9;" horiz-adv-x="1191" d="M221 252v981q0 140 74 204.5t184 61.5l608 -20v-29h-608q-209 0 -209 -217v-465l736 -10v-29l-736 -10v-467q0 -54 13.5 -93.5t34 -61.5t53 -34.5t61.5 -16t68 -3.5h587v-29l-585 -20q-57 -2 -102 6.5t-88 33.5t-67 80t-24 138zM680 1622l248 272h53l-272 -272h-29z" />
<glyph unicode="&#xca;" horiz-adv-x="1191" d="M221 252v981q0 140 74 204.5t184 61.5l608 -20v-29h-608q-209 0 -209 -217v-465l736 -10v-29l-736 -10v-467q0 -54 13.5 -93.5t34 -61.5t53 -34.5t61.5 -16t68 -3.5h587v-29l-585 -20q-57 -2 -102 6.5t-88 33.5t-67 80t-24 138zM410 1632l270 266h41l246 -266h-37 l-230 236l-254 -236h-36z" />
<glyph unicode="&#xcb;" horiz-adv-x="1191" d="M221 252v981q0 140 74 204.5t184 61.5l608 -20v-29h-608q-209 0 -209 -217v-465l736 -10v-29l-736 -10v-467q0 -54 13.5 -93.5t34 -61.5t53 -34.5t61.5 -16t68 -3.5h587v-29l-585 -20q-57 -2 -102 6.5t-88 33.5t-67 80t-24 138zM367 1726q0 15 9.5 25t24.5 10t25 -10 t10 -25t-10 -25.5t-25 -10.5t-24.5 10.5t-9.5 25.5zM887 1726q0 15 11 25t26 10t24.5 -10t9.5 -25t-9.5 -25.5t-24.5 -10.5t-26 10.5t-11 25.5z" />
<glyph unicode="&#xcc;" horiz-adv-x="409" d="M-41 1905h53l248 -273h-29zM221 0v1499h49v-1499h-49z" />
<glyph unicode="&#xcd;" horiz-adv-x="409" d="M221 0v1499h49v-1499h-49zM231 1632l248 273h53l-272 -273h-29z" />
<glyph unicode="&#xce;" horiz-adv-x="409" d="M-33 1632l271 266h41l245 -266h-37l-229 236l-254 -236h-37zM221 0v1499h49v-1499h-49z" />
<glyph unicode="&#xcf;" horiz-adv-x="409" d="M-50 1669q0 15 10 25t25 10t24.5 -10t9.5 -25t-9.5 -26t-24.5 -11t-25 11t-10 26zM221 0v1499h49v-1499h-49zM470 1669q0 15 11 25t26 10t25 -10t10 -25t-10 -26t-25 -11t-26 11t-11 26z" />
<glyph unicode="&#xd0;" horiz-adv-x="1374" d="M88 750v28h133v721h498q96 0 175 -26.5t133 -69.5t95 -105.5t64.5 -127.5t38 -143.5t19.5 -144.5t5 -139q0 -106 -18.5 -208.5t-59.5 -200t-101 -171t-150.5 -118.5t-200.5 -45h-498v750h-133zM270 49h449q99 0 181 43.5t136.5 114t92.5 162.5t54.5 187t16.5 189 q0 355 -124.5 530t-356.5 175h-449v-672h326v-28h-326v-701z" />
<glyph unicode="&#xd1;" horiz-adv-x="1361" d="M221 0v1499h51l902 -1405v1405h49v-1499h-49l-904 1405v-1405h-49zM376 1696q46 40 72 60t67 39.5t78 19.5q34 0 84.5 -37.5t98.5 -75t75 -37.5q73 0 182 89q4 4 13 12l10 8l12 -15q-42 -42 -69 -65t-67.5 -42.5t-80.5 -19.5q-29 0 -67 23.5t-69 51.5t-65.5 51.5 t-56.5 23.5q-19 0 -38.5 -5t-32.5 -9.5t-36 -18t-31 -19t-36.5 -26t-34.5 -25.5z" />
<glyph unicode="&#xd2;" horiz-adv-x="1382" d="M180 739q0 116 7.5 211t21 169t36 131.5t48 98.5t63 70t74.5 46.5t88 27t99 13t112 3.5q65 0 112.5 -3.5t99 -13t88.5 -27t74.5 -46.5t62.5 -70t48 -98.5t36 -131.5t20.5 -169t7.5 -211q0 -124 -8 -222.5t-26 -174t-42 -131t-60.5 -94.5t-76 -63.5t-95.5 -38t-111 -18.5 t-130 -5q-67 0 -116 3t-101.5 12.5t-89 26.5t-73.5 45t-61.5 68t-46.5 95t-34.5 127.5t-19.5 164.5t-7 205zM229 739q0 -115 6 -205t20.5 -161.5t34.5 -122.5t52 -88.5t67.5 -60.5t87 -36.5t105.5 -18.5t127 -5q80 0 138.5 7t113.5 25.5t92 51.5t69 84.5t49.5 126t27.5 174 t10 229.5q0 124 -7.5 221.5t-25 171t-39 127t-56 90t-69.5 58.5t-87 33.5t-100 15.5t-116 4q-77 0 -124.5 -3.5t-106.5 -18.5t-94 -44t-72.5 -81.5t-57.5 -129t-32.5 -187.5t-12.5 -257zM442 1905h54l247 -273h-28z" />
<glyph unicode="&#xd3;" horiz-adv-x="1382" d="M180 739q0 116 7.5 211t21 169t36 131.5t48 98.5t63 70t74.5 46.5t88 27t99 13t112 3.5q65 0 112.5 -3.5t99 -13t88.5 -27t74.5 -46.5t62.5 -70t48 -98.5t36 -131.5t20.5 -169t7.5 -211q0 -124 -8 -222.5t-26 -174t-42 -131t-60.5 -94.5t-76 -63.5t-95.5 -38t-111 -18.5 t-130 -5q-67 0 -116 3t-101.5 12.5t-89 26.5t-73.5 45t-61.5 68t-46.5 95t-34.5 127.5t-19.5 164.5t-7 205zM229 739q0 -115 6 -205t20.5 -161.5t34.5 -122.5t52 -88.5t67.5 -60.5t87 -36.5t105.5 -18.5t127 -5q80 0 138.5 7t113.5 25.5t92 51.5t69 84.5t49.5 126t27.5 174 t10 229.5q0 124 -7.5 221.5t-25 171t-39 127t-56 90t-69.5 58.5t-87 33.5t-100 15.5t-116 4q-77 0 -124.5 -3.5t-106.5 -18.5t-94 -44t-72.5 -81.5t-57.5 -129t-32.5 -187.5t-12.5 -257zM715 1632l248 273h53l-273 -273h-28z" />
<glyph unicode="&#xd4;" horiz-adv-x="1382" d="M180 739q0 116 7.5 211t21 169t36 131.5t48 98.5t63 70t74.5 46.5t88 27t99 13t112 3.5q65 0 112.5 -3.5t99 -13t88.5 -27t74.5 -46.5t62.5 -70t48 -98.5t36 -131.5t20.5 -169t7.5 -211q0 -124 -8 -222.5t-26 -174t-42 -131t-60.5 -94.5t-76 -63.5t-95.5 -38t-111 -18.5 t-130 -5q-67 0 -116 3t-101.5 12.5t-89 26.5t-73.5 45t-61.5 68t-46.5 95t-34.5 127.5t-19.5 164.5t-7 205zM229 739q0 -115 6 -205t20.5 -161.5t34.5 -122.5t52 -88.5t67.5 -60.5t87 -36.5t105.5 -18.5t127 -5q80 0 138.5 7t113.5 25.5t92 51.5t69 84.5t49.5 126t27.5 174 t10 229.5q0 124 -7.5 221.5t-25 171t-39 127t-56 90t-69.5 58.5t-87 33.5t-100 15.5t-116 4q-77 0 -124.5 -3.5t-106.5 -18.5t-94 -44t-72.5 -81.5t-57.5 -129t-32.5 -187.5t-12.5 -257zM451 1632l270 266h41l246 -266h-37l-230 236l-254 -236h-36z" />
<glyph unicode="&#xd5;" horiz-adv-x="1382" d="M180 739q0 116 7.5 211t21 169t36 131.5t48 98.5t63 70t74.5 46.5t88 27t99 13t112 3.5q65 0 112.5 -3.5t99 -13t88.5 -27t74.5 -46.5t62.5 -70t48 -98.5t36 -131.5t20.5 -169t7.5 -211q0 -124 -8 -222.5t-26 -174t-42 -131t-60.5 -94.5t-76 -63.5t-95.5 -38t-111 -18.5 t-130 -5q-67 0 -116 3t-101.5 12.5t-89 26.5t-73.5 45t-61.5 68t-46.5 95t-34.5 127.5t-19.5 164.5t-7 205zM229 739q0 -115 6 -205t20.5 -161.5t34.5 -122.5t52 -88.5t67.5 -60.5t87 -36.5t105.5 -18.5t127 -5q80 0 138.5 7t113.5 25.5t92 51.5t69 84.5t49.5 126t27.5 174 t10 229.5q0 124 -7.5 221.5t-25 171t-39 127t-56 90t-69.5 58.5t-87 33.5t-100 15.5t-116 4q-77 0 -124.5 -3.5t-106.5 -18.5t-94 -44t-72.5 -81.5t-57.5 -129t-32.5 -187.5t-12.5 -257zM383 1696q46 40 72 60t67 39.5t78 19.5q34 0 84.5 -37.5t98.5 -75t75 -37.5 q73 0 182 89q4 4 13 12l10 8l12 -15q-42 -42 -69 -65t-67.5 -42.5t-80.5 -19.5q-29 0 -67 23.5t-69 51.5t-65.5 51.5t-56.5 23.5q-19 0 -38.5 -5t-32.5 -9.5t-36 -18t-31 -19t-36.5 -26t-34.5 -25.5z" />
<glyph unicode="&#xd6;" horiz-adv-x="1382" d="M180 739q0 116 7.5 211t21 169t36 131.5t48 98.5t63 70t74.5 46.5t88 27t99 13t112 3.5q65 0 112.5 -3.5t99 -13t88.5 -27t74.5 -46.5t62.5 -70t48 -98.5t36 -131.5t20.5 -169t7.5 -211q0 -124 -8 -222.5t-26 -174t-42 -131t-60.5 -94.5t-76 -63.5t-95.5 -38t-111 -18.5 t-130 -5q-67 0 -116 3t-101.5 12.5t-89 26.5t-73.5 45t-61.5 68t-46.5 95t-34.5 127.5t-19.5 164.5t-7 205zM229 739q0 -115 6 -205t20.5 -161.5t34.5 -122.5t52 -88.5t67.5 -60.5t87 -36.5t105.5 -18.5t127 -5q80 0 138.5 7t113.5 25.5t92 51.5t69 84.5t49.5 126t27.5 174 t10 229.5q0 124 -7.5 221.5t-25 171t-39 127t-56 90t-69.5 58.5t-87 33.5t-100 15.5t-116 4q-77 0 -124.5 -3.5t-106.5 -18.5t-94 -44t-72.5 -81.5t-57.5 -129t-32.5 -187.5t-12.5 -257zM433 1669q0 15 10 25t25 10t25 -10t10 -25t-10 -26t-25 -11t-25 11t-10 26zM953 1669 q0 15 11 25t26 10t25 -10t10 -25t-10 -26t-25 -11t-26 11t-11 26z" />
<glyph unicode="&#xd7;" horiz-adv-x="897" d="M156 467l262 262l-262 262l34 35l263 -262l262 262l35 -35l-263 -262l263 -262l-35 -35l-262 262l-263 -262z" />
<glyph unicode="&#xd8;" horiz-adv-x="1382" d="M180 739q0 116 7.5 211t21 169t36 131.5t48 98.5t63 70t74.5 46.5t88 27t99 13t112 3.5q146 0 240.5 -22.5t158.5 -89.5l66 102h37l-82 -127q129 -167 129 -633q0 -124 -8 -222.5t-26 -174t-42 -131t-60.5 -94.5t-76 -63.5t-95.5 -38t-111 -18.5t-130 -5 q-149 0 -242.5 20.5t-156.5 83.5l-64 -96h-37l78 121q-64 80 -95.5 227.5t-31.5 390.5zM229 739q0 -224 26 -360t83 -211l762 1184q-58 65 -145 86.5t-226 21.5q-77 0 -124.5 -3.5t-106.5 -18.5t-94 -44t-72.5 -81.5t-57.5 -129t-32.5 -187.5t-12.5 -257zM358 143 q57 -58 144.5 -80t226.5 -22q80 0 138.5 7t113.5 25.5t92 51.5t69 84.5t49.5 126t27.5 174t10 229.5q0 432 -109 586z" />
<glyph unicode="&#xd9;" horiz-adv-x="1398" d="M221 655v844h49v-844q0 -91 5 -166t18 -133t26 -104t38.5 -78.5t45 -56t55.5 -38t60.5 -23t70.5 -12t74.5 -4.5t81.5 -1q76 0 124.5 5.5t108.5 24t96.5 59.5t70.5 107t49.5 172t15.5 248v844h50v-844q0 -108 -10.5 -197t-25.5 -154t-43.5 -115.5t-53 -83.5t-66.5 -55.5 t-71.5 -34t-80.5 -17.5t-80.5 -7t-83.5 -1q-161 0 -227 14q-144 31 -213 160q-84 156 -84 491zM454 1905h53l248 -273h-29z" />
<glyph unicode="&#xda;" horiz-adv-x="1398" d="M221 655v844h49v-844q0 -91 5 -166t18 -133t26 -104t38.5 -78.5t45 -56t55.5 -38t60.5 -23t70.5 -12t74.5 -4.5t81.5 -1q76 0 124.5 5.5t108.5 24t96.5 59.5t70.5 107t49.5 172t15.5 248v844h50v-844q0 -108 -10.5 -197t-25.5 -154t-43.5 -115.5t-53 -83.5t-66.5 -55.5 t-71.5 -34t-80.5 -17.5t-80.5 -7t-83.5 -1q-161 0 -227 14q-144 31 -213 160q-84 156 -84 491zM726 1632l248 273h53l-272 -273h-29z" />
<glyph unicode="&#xdb;" horiz-adv-x="1398" d="M221 655v844h49v-844q0 -91 5 -166t18 -133t26 -104t38.5 -78.5t45 -56t55.5 -38t60.5 -23t70.5 -12t74.5 -4.5t81.5 -1q76 0 124.5 5.5t108.5 24t96.5 59.5t70.5 107t49.5 172t15.5 248v844h50v-844q0 -108 -10.5 -197t-25.5 -154t-43.5 -115.5t-53 -83.5t-66.5 -55.5 t-71.5 -34t-80.5 -17.5t-80.5 -7t-83.5 -1q-161 0 -227 14q-144 31 -213 160q-84 156 -84 491zM462 1632l270 266h41l246 -266h-37l-229 236l-254 -236h-37z" />
<glyph unicode="&#xdc;" horiz-adv-x="1398" d="M221 655v844h49v-844q0 -91 5 -166t18 -133t26 -104t38.5 -78.5t45 -56t55.5 -38t60.5 -23t70.5 -12t74.5 -4.5t81.5 -1q76 0 124.5 5.5t108.5 24t96.5 59.5t70.5 107t49.5 172t15.5 248v844h50v-844q0 -108 -10.5 -197t-25.5 -154t-43.5 -115.5t-53 -83.5t-66.5 -55.5 t-71.5 -34t-80.5 -17.5t-80.5 -7t-83.5 -1q-161 0 -227 14q-144 31 -213 160q-84 156 -84 491zM444 1669q0 15 10 25t25 10t25 -10t10 -25t-10 -26t-25 -11t-25 11t-10 26zM965 1669q0 15 10.5 25t25.5 10t25 -10t10 -25t-10 -26t-25 -11t-25.5 11t-10.5 26z" />
<glyph unicode="&#xdd;" horiz-adv-x="1267" d="M125 1499h55l467 -903l508 903h55l-538 -967v-532h-49v532zM653 1632l248 273h53l-272 -273h-29z" />
<glyph unicode="&#xde;" horiz-adv-x="1134" d="M166 0v1493h49v-289h444q54 0 100.5 -9.5t96 -38.5t84.5 -75.5t57.5 -126.5t22.5 -186q0 -87 -12.5 -157t-32.5 -117.5t-50 -83t-60 -55t-68.5 -31.5t-69.5 -15.5t-68 -3.5q-355 9 -444 21v-326h-49zM215 354h444q75 0 130.5 20.5t97.5 67.5t63 129.5t21 200.5 q0 81 -13.5 144t-38 103.5t-53.5 68t-66.5 41.5t-70 19.5t-70.5 6.5h-444v-801z" />
<glyph unicode="&#xdf;" horiz-adv-x="1159" d="M166 0v1159q0 91 26 168t77 136.5t134 93.5t189 34q125 0 215 -26.5t135.5 -70.5t65.5 -100t10.5 -117t-35 -119.5t-67 -108.5t-89.5 -84q-35 -27 -82 -59t-71.5 -49.5t-49.5 -41t-35.5 -47.5t-10.5 -55q0 -47 29 -76t75.5 -41.5t103 -20.5t113 -18.5t103.5 -29t76.5 -59 t29.5 -101.5v-97q0 -137 -87.5 -211.5t-236.5 -74.5q-200 0 -354 30v29q195 -10 354 -10q67 0 118 16.5t80 41t47 58t24 62.5t6 59v97q1 52 -28 84t-75.5 45t-103.5 20.5t-114 16.5t-104 26t-76.5 55.5t-29.5 98.5q0 38 9.5 65.5t40.5 58.5t63.5 55t104.5 74q11 8 17.5 12.5 t17.5 12t20 13.5q53 37 101.5 104.5t62.5 132.5q34 145 -62.5 223t-310.5 78q-178 0 -277.5 -100t-99.5 -283v-1159h-49z" />
<glyph unicode="&#xe0;" horiz-adv-x="1064" d="M111 258v125q0 129 72.5 200.5t199.5 71.5q496 -2 496 0q2 136 0 138q0 56 -13 102t-42.5 84.5t-83 60.5t-128.5 23q-100 1 -199.5 -10t-267.5 -37v28q250 62 469 64q137 2 225.5 -76.5t88.5 -238.5v-793h-31l-18 131l-33 -15q-33 -14 -86.5 -35t-115.5 -42.5t-133.5 -36 t-127.5 -14.5q-117 0 -194.5 72t-77.5 198zM160 268q0 -62 20.5 -108.5t54 -72t71 -37.5t77.5 -13q73 -2 197 29t212 62l87 32v467l-496 -21q-223 -8 -223 -223v-115zM268 1503h54l247 -272h-28z" />
<glyph unicode="&#xe1;" horiz-adv-x="1064" d="M111 258v125q0 129 72.5 200.5t199.5 71.5q496 -2 496 0q2 136 0 138q0 56 -13 102t-42.5 84.5t-83 60.5t-128.5 23q-100 1 -199.5 -10t-267.5 -37v28q250 62 469 64q137 2 225.5 -76.5t88.5 -238.5v-793h-31l-18 131l-33 -15q-33 -14 -86.5 -35t-115.5 -42.5t-133.5 -36 t-127.5 -14.5q-117 0 -194.5 72t-77.5 198zM160 268q0 -62 20.5 -108.5t54 -72t71 -37.5t77.5 -13q73 -2 197 29t212 62l87 32v467l-496 -21q-223 -8 -223 -223v-115zM528 1231l248 272h53l-272 -272h-29z" />
<glyph unicode="&#xe2;" horiz-adv-x="1064" d="M111 258v125q0 129 72.5 200.5t199.5 71.5q496 -2 496 0q2 136 0 138q0 56 -13 102t-42.5 84.5t-83 60.5t-128.5 23q-100 1 -199.5 -10t-267.5 -37v28q250 62 469 64q137 2 225.5 -76.5t88.5 -238.5v-793h-31l-18 131l-33 -15q-33 -14 -86.5 -35t-115.5 -42.5t-133.5 -36 t-127.5 -14.5q-117 0 -194.5 72t-77.5 198zM160 268q0 -62 20.5 -108.5t54 -72t71 -37.5t77.5 -13q73 -2 197 29t212 62l87 32v467l-496 -21q-223 -8 -223 -223v-115zM272 1231l271 266h41l245 -266h-36l-230 235l-254 -235h-37z" />
<glyph unicode="&#xe3;" horiz-adv-x="1064" d="M111 258v125q0 129 72.5 200.5t199.5 71.5q496 -2 496 0q2 136 0 138q0 56 -13 102t-42.5 84.5t-83 60.5t-128.5 23q-100 1 -199.5 -10t-267.5 -37v28q250 62 469 64q137 2 225.5 -76.5t88.5 -238.5v-793h-31l-18 131l-33 -15q-33 -14 -86.5 -35t-115.5 -42.5t-133.5 -36 t-127.5 -14.5q-117 0 -194.5 72t-77.5 198zM160 268q0 -62 20.5 -108.5t54 -72t71 -37.5t77.5 -13q73 -2 197 29t212 62l87 32v467l-496 -21q-223 -8 -223 -223v-115zM195 1315q46 40 72 60t67 39.5t78 19.5q34 0 84.5 -37.5t98.5 -75t75 -37.5q13 0 26 2t27 7.5t24.5 9.5 t25.5 14t22.5 14t23 16.5t19.5 15.5t20 17l16 13l13 -15q-42 -42 -69 -65t-67.5 -42.5t-80.5 -19.5q-29 0 -67 23.5t-69 51.5t-65.5 51.5t-56.5 23.5q-19 0 -38.5 -5t-32.5 -9.5t-36 -18t-31 -19t-36.5 -26t-34.5 -25.5z" />
<glyph unicode="&#xe4;" horiz-adv-x="1064" d="M111 258v125q0 129 72.5 200.5t199.5 71.5q496 -2 496 0q2 136 0 138q0 56 -13 102t-42.5 84.5t-83 60.5t-128.5 23q-100 1 -199.5 -10t-267.5 -37v28q250 62 469 64q137 2 225.5 -76.5t88.5 -238.5v-793h-31l-18 131l-33 -15q-33 -14 -86.5 -35t-115.5 -42.5t-133.5 -36 t-127.5 -14.5q-117 0 -194.5 72t-77.5 198zM160 268q0 -62 20.5 -108.5t54 -72t71 -37.5t77.5 -13q73 -2 197 29t212 62l87 32v467l-496 -21q-223 -8 -223 -223v-115zM254 1335q0 15 10 25t25 10t25 -10t10 -25t-10 -26t-25 -11t-25 11t-10 26zM774 1335q0 15 11 25t26 10 t25 -10t10 -25t-10 -26t-25 -11t-26 11t-11 26z" />
<glyph unicode="&#xe5;" horiz-adv-x="1064" d="M111 258v125q0 129 72.5 200.5t199.5 71.5q496 -2 496 0q2 136 0 138q0 56 -13 102t-42.5 84.5t-83 60.5t-128.5 23q-100 1 -199.5 -10t-267.5 -37v28q250 62 469 64q137 2 225.5 -76.5t88.5 -238.5v-793h-31l-18 131l-33 -15q-33 -14 -86.5 -35t-115.5 -42.5t-133.5 -36 t-127.5 -14.5q-117 0 -194.5 72t-77.5 198zM160 268q0 -62 20.5 -108.5t54 -72t71 -37.5t77.5 -13q73 -2 197 29t212 62l87 32v467l-496 -21q-223 -8 -223 -223v-115zM334 1378q0 88 61.5 149.5t147.5 61.5t145.5 -61.5t59.5 -149.5t-59.5 -148.5t-145.5 -60.5 q-87 0 -148 61t-61 148zM362 1378q0 -73 53.5 -125.5t127.5 -52.5q73 0 124.5 52t51.5 126t-51.5 127.5t-124.5 53.5t-127 -53.5t-54 -127.5z" />
<glyph unicode="&#xe6;" horiz-adv-x="1820" d="M111 258v59q0 130 72.5 201.5t199.5 71.5q496 -2 496 0q2 201 0 203q0 56 -13 102t-42.5 84.5t-83 60.5t-128.5 23q-100 1 -199.5 -10t-267.5 -37v28q250 62 469 64q113 2 195 -52t109 -165q15 60 46 100.5t80.5 62.5t108.5 31t141 9h2q69 0 102 -1t86.5 -7.5t79 -19.5 t59.5 -39t49 -64t26.5 -95t11.5 -133q0 -115 -68.5 -156.5t-211.5 -41.5h-500q-4 -116 -0.5 -201t14.5 -142t46 -91.5t93 -49.5t156 -16q35 0 68.5 0.5t58.5 1.5t58.5 4t51.5 5t54 6.5t50 6.5t55.5 8.5t54.5 8.5v-33q-119 -34 -217.5 -45.5t-233.5 -11.5q-76 0 -135 11.5 t-90.5 25.5t-56.5 37.5t-31.5 35t-16.5 31.5l-36 -15q-36 -14 -94 -35t-124.5 -41.5t-141 -35t-130.5 -14.5q-117 0 -194.5 72t-77.5 198zM160 268q0 -62 20.5 -108.5t54 -72t71 -37.5t77.5 -13q73 -2 197 32.5t212 69.5l87 35v379l-496 -12q-223 -5 -223 -224v-49zM930 584 h500q46 0 74.5 2t61.5 10t51.5 24t31 44.5t12.5 70.5q0 66 -8 114t-18.5 81.5t-38 55t-49 33.5t-69.5 17.5t-81 6.5t-101 1q-79 0 -132.5 -7t-96 -27.5t-67 -51.5t-41 -85t-22.5 -121.5t-7 -167.5z" />
<glyph unicode="&#xe7;" horiz-adv-x="1026" d="M139 545q0 139 17.5 239.5t47 160.5t77 95t97.5 46.5t118 11.5q169 0 405 -54v-28q-223 33 -405 33q-61 0 -104 -10.5t-84 -42.5t-65.5 -87.5t-39.5 -148.5t-15 -223q0 -123 15.5 -213.5t41.5 -144.5t67 -86t84 -43t100 -11q84 0 189.5 10.5t168.5 21.5l64 11v-33 q-122 -34 -206.5 -45.5t-215.5 -13.5q-67 0 -116 11.5t-96.5 46.5t-77.5 95t-48.5 161.5t-18.5 240.5zM326 -336l67 10q39 6 60.5 11.5t46 21t36 41t19 70.5t6.5 110h35q0 -159 -41.5 -218.5t-165.5 -59.5h-63v14z" />
<glyph unicode="&#xe8;" horiz-adv-x="1077" d="M139 549q0 121 9 207t31.5 147.5t52.5 98.5t80 58.5t104.5 28.5t136.5 7q61 0 102 -2.5t88 -11t77.5 -24.5t61 -44.5t47.5 -69t27.5 -99t10.5 -134.5q0 -115 -68 -157t-211 -42h-500q0 -121 15.5 -208t41 -137.5t67 -80t83.5 -38.5t101 -9q88 0 173.5 6.5t126 12.5 t150.5 22v-33q-121 -34 -220 -46.5t-230 -10.5q-105 2 -173.5 32t-109.5 99.5t-57.5 171t-16.5 256.5zM188 559h500q41 0 68.5 2t61 10.5t53.5 24t33.5 45t13.5 70.5q0 65 -8 115t-21.5 86t-38.5 60.5t-51.5 39t-68 22.5t-80.5 10.5t-97 2.5q-76 0 -126.5 -6.5t-94.5 -25.5 t-69 -52t-43.5 -88.5t-25 -131t-6.5 -184.5zM297 1483h53l248 -273h-29z" />
<glyph unicode="&#xe9;" horiz-adv-x="1077" d="M139 549q0 121 9 207t31.5 147.5t52.5 98.5t80 58.5t104.5 28.5t136.5 7q61 0 102 -2.5t88 -11t77.5 -24.5t61 -44.5t47.5 -69t27.5 -99t10.5 -134.5q0 -115 -68 -157t-211 -42h-500q0 -121 15.5 -208t41 -137.5t67 -80t83.5 -38.5t101 -9q88 0 173.5 6.5t126 12.5 t150.5 22v-33q-121 -34 -220 -46.5t-230 -10.5q-105 2 -173.5 32t-109.5 99.5t-57.5 171t-16.5 256.5zM188 559h500q41 0 68.5 2t61 10.5t53.5 24t33.5 45t13.5 70.5q0 65 -8 115t-21.5 86t-38.5 60.5t-51.5 39t-68 22.5t-80.5 10.5t-97 2.5q-76 0 -126.5 -6.5t-94.5 -25.5 t-69 -52t-43.5 -88.5t-25 -131t-6.5 -184.5zM557 1210l248 273h53l-272 -273h-29z" />
<glyph unicode="&#xea;" horiz-adv-x="1077" d="M139 549q0 121 9 207t31.5 147.5t52.5 98.5t80 58.5t104.5 28.5t136.5 7q61 0 102 -2.5t88 -11t77.5 -24.5t61 -44.5t47.5 -69t27.5 -99t10.5 -134.5q0 -115 -68 -157t-211 -42h-500q0 -121 15.5 -208t41 -137.5t67 -80t83.5 -38.5t101 -9q88 0 173.5 6.5t126 12.5 t150.5 22v-33q-121 -34 -220 -46.5t-230 -10.5q-105 2 -173.5 32t-109.5 99.5t-57.5 171t-16.5 256.5zM188 559h500q41 0 68.5 2t61 10.5t53.5 24t33.5 45t13.5 70.5q0 65 -8 115t-21.5 86t-38.5 60.5t-51.5 39t-68 22.5t-80.5 10.5t-97 2.5q-76 0 -126.5 -6.5t-94.5 -25.5 t-69 -52t-43.5 -88.5t-25 -131t-6.5 -184.5zM276 1210l271 267h41l246 -267h-37l-230 236l-254 -236h-37z" />
<glyph unicode="&#xeb;" horiz-adv-x="1077" d="M139 549q0 121 9 207t31.5 147.5t52.5 98.5t80 58.5t104.5 28.5t136.5 7q61 0 102 -2.5t88 -11t77.5 -24.5t61 -44.5t47.5 -69t27.5 -99t10.5 -134.5q0 -115 -68 -157t-211 -42h-500q0 -121 15.5 -208t41 -137.5t67 -80t83.5 -38.5t101 -9q88 0 173.5 6.5t126 12.5 t150.5 22v-33q-121 -34 -220 -46.5t-230 -10.5q-105 2 -173.5 32t-109.5 99.5t-57.5 171t-16.5 256.5zM188 559h500q41 0 68.5 2t61 10.5t53.5 24t33.5 45t13.5 70.5q0 65 -8 115t-21.5 86t-38.5 60.5t-51.5 39t-68 22.5t-80.5 10.5t-97 2.5q-76 0 -126.5 -6.5t-94.5 -25.5 t-69 -52t-43.5 -88.5t-25 -131t-6.5 -184.5zM272 1315q0 15 10 25t25 10t25 -10t10 -25t-10 -26t-25 -11t-25 11t-10 26zM793 1315q0 15 10.5 25t25.5 10t25 -10t10 -25t-10 -26t-25 -11t-25.5 11t-10.5 26z" />
<glyph unicode="&#xec;" horiz-adv-x="380" d="M-96 1493h53l248 -272h-29zM166 0v1087h49v-1087h-49z" />
<glyph unicode="&#xed;" horiz-adv-x="380" d="M166 0v1087h49v-1087h-49zM176 1221l248 272h53l-272 -272h-29z" />
<glyph unicode="&#xee;" horiz-adv-x="380" d="M-88 1221l270 266h41l246 -266h-37l-229 235l-254 -235h-37zM166 0v1087h49v-1087h-49z" />
<glyph unicode="&#xef;" horiz-adv-x="380" d="M-105 1257q0 15 9.5 25t24.5 10t25 -10t10 -25t-10 -25.5t-25 -10.5t-24.5 10.5t-9.5 25.5zM166 0v1087h49v-1087h-49zM415 1257q0 15 11 25t26 10t24.5 -10t9.5 -25t-9.5 -25.5t-24.5 -10.5t-26 10.5t-11 25.5z" />
<glyph unicode="&#xf0;" horiz-adv-x="1105" d="M111 541q0 274 82.5 410t281.5 136h143q117 0 192 -46t95 -89q-57 298 -209 449l-329 -131l-11 28l316 125q-159 135 -389 138v43q259 0 438 -162l262 104l12 -28l-250 -99q242 -257 242 -878q0 -149 -26.5 -256t-76.5 -168t-115.5 -89t-150.5 -28h-143 q-204 0 -284 127.5t-80 413.5zM160 541q0 -122 14 -209t39 -141t66 -85t86.5 -42t109.5 -11h143q93 0 158 37.5t99 107.5t48.5 152.5t14.5 190.5q0 55 -2 99t-10 97.5t-21.5 94t-37.5 81t-57 66.5t-82 42.5t-110 16.5h-143q-59 0 -103.5 -11.5t-85.5 -44.5t-68 -87 t-42.5 -143.5t-15.5 -210.5z" />
<glyph unicode="&#xf1;" d="M166 0v1087h29l20 -126q221 145 442 145q155 0 245.5 -102.5t90.5 -245.5v-758h-49v758q0 127 -77.5 213t-209.5 86q-127 0 -222.5 -29t-219.5 -96v-932h-49zM233 1292q45 39 71.5 59.5t68 40t78.5 19.5q34 0 84.5 -37.5t98.5 -74.5t75 -37q34 0 73.5 18t65.5 37.5 t56 44.5q6 5 9 8l13 -14q-42 -42 -69 -65t-67.5 -42.5t-80.5 -19.5q-29 0 -67 23.5t-69 51t-65.5 51t-56.5 23.5q-16 0 -31.5 -2.5t-32 -9t-27.5 -11.5t-30 -17.5t-27 -18t-31 -22t-30 -21.5z" />
<glyph unicode="&#xf2;" horiz-adv-x="1173" d="M139 528q0 223 45 346.5t139.5 173.5t262.5 50q132 0 219.5 -34t138.5 -108t71.5 -176t20.5 -252q0 -301 -97 -419.5t-353 -118.5q-136 0 -222 28.5t-136.5 96t-69.5 164.5t-19 249zM188 528q0 -128 17.5 -216.5t47 -142t82 -82.5t109 -38.5t142.5 -9.5q84 0 143 11 t110.5 42t82.5 85t48 141t17 210q0 94 -9.5 168.5t-26.5 129t-44 94t-58.5 64.5t-74.5 39.5t-87 20t-101 5.5q-59 0 -100 -4t-86 -16.5t-74.5 -35t-57.5 -61t-44.5 -93.5t-26 -132.5t-9.5 -178.5zM299 1493h53l248 -272h-29z" />
<glyph unicode="&#xf3;" horiz-adv-x="1173" d="M139 528q0 223 45 346.5t139.5 173.5t262.5 50q132 0 219.5 -34t138.5 -108t71.5 -176t20.5 -252q0 -301 -97 -419.5t-353 -118.5q-136 0 -222 28.5t-136.5 96t-69.5 164.5t-19 249zM188 528q0 -128 17.5 -216.5t47 -142t82 -82.5t109 -38.5t142.5 -9.5q84 0 143 11 t110.5 42t82.5 85t48 141t17 210q0 94 -9.5 168.5t-26.5 129t-44 94t-58.5 64.5t-74.5 39.5t-87 20t-101 5.5q-59 0 -100 -4t-86 -16.5t-74.5 -35t-57.5 -61t-44.5 -93.5t-26 -132.5t-9.5 -178.5zM571 1221l248 272h53l-272 -272h-29z" />
<glyph unicode="&#xf4;" horiz-adv-x="1173" d="M139 528q0 223 45 346.5t139.5 173.5t262.5 50q132 0 219.5 -34t138.5 -108t71.5 -176t20.5 -252q0 -301 -97 -419.5t-353 -118.5q-136 0 -222 28.5t-136.5 96t-69.5 164.5t-19 249zM188 528q0 -128 17.5 -216.5t47 -142t82 -82.5t109 -38.5t142.5 -9.5q84 0 143 11 t110.5 42t82.5 85t48 141t17 210q0 94 -9.5 168.5t-26.5 129t-44 94t-58.5 64.5t-74.5 39.5t-87 20t-101 5.5q-59 0 -100 -4t-86 -16.5t-74.5 -35t-57.5 -61t-44.5 -93.5t-26 -132.5t-9.5 -178.5zM307 1221l271 266h40l246 -266h-37l-229 235l-254 -235h-37z" />
<glyph unicode="&#xf5;" horiz-adv-x="1173" d="M139 528q0 223 45 346.5t139.5 173.5t262.5 50q132 0 219.5 -34t138.5 -108t71.5 -176t20.5 -252q0 -301 -97 -419.5t-353 -118.5q-136 0 -222 28.5t-136.5 96t-69.5 164.5t-19 249zM188 528q0 -128 17.5 -216.5t47 -142t82 -82.5t109 -38.5t142.5 -9.5q84 0 143 11 t110.5 42t82.5 85t48 141t17 210q0 94 -9.5 168.5t-26.5 129t-44 94t-58.5 64.5t-74.5 39.5t-87 20t-101 5.5q-59 0 -100 -4t-86 -16.5t-74.5 -35t-57.5 -61t-44.5 -93.5t-26 -132.5t-9.5 -178.5zM240 1284q46 40 72 60t67 39.5t78 19.5q34 0 84.5 -37.5t98.5 -75t75 -37.5 q73 0 182 89q4 4 13 12l10 8l12 -14q-42 -42 -69 -65t-67.5 -42.5t-80.5 -19.5q-29 0 -67 23.5t-69 51t-65.5 51t-56.5 23.5q-16 0 -31.5 -2.5t-32 -9t-27.5 -11.5t-30 -17.5t-27 -18t-31 -22t-30 -21.5z" />
<glyph unicode="&#xf6;" horiz-adv-x="1173" d="M139 528q0 223 45 346.5t139.5 173.5t262.5 50q132 0 219.5 -34t138.5 -108t71.5 -176t20.5 -252q0 -301 -97 -419.5t-353 -118.5q-136 0 -222 28.5t-136.5 96t-69.5 164.5t-19 249zM188 528q0 -128 17.5 -216.5t47 -142t82 -82.5t109 -38.5t142.5 -9.5q84 0 143 11 t110.5 42t82.5 85t48 141t17 210q0 94 -9.5 168.5t-26.5 129t-44 94t-58.5 64.5t-74.5 39.5t-87 20t-101 5.5q-59 0 -100 -4t-86 -16.5t-74.5 -35t-57.5 -61t-44.5 -93.5t-26 -132.5t-9.5 -178.5zM290 1257q0 15 10 25t25 10t24.5 -10t9.5 -25t-9.5 -25.5t-24.5 -10.5 t-25 10.5t-10 25.5zM810 1257q0 15 11 25t26 10t25 -10t10 -25t-10 -25.5t-25 -10.5t-26 10.5t-11 25.5z" />
<glyph unicode="&#xf7;" horiz-adv-x="1128" d="M139 698v50h852v-50h-852zM537 326v86q0 24 24 24h23q24 0 24 -24v-86q0 -25 -24 -25h-23q-10 0 -17 7t-7 18zM537 1012v88q0 24 24 24h23q24 0 24 -24v-88q0 -23 -24 -23h-23q-24 0 -24 23z" />
<glyph unicode="&#xf8;" horiz-adv-x="1173" d="M139 528q0 223 45 346.5t139.5 173.5t262.5 50q213 0 317 -94l64 83h37l-80 -106q61 -68 86.5 -178.5t25.5 -274.5q0 -301 -97 -419.5t-353 -118.5q-228 0 -330 92l-59 -82h-37l76 102q-53 62 -75 164t-22 262zM188 528q0 -272 80 -381l606 818q-49 49 -118 66.5 t-170 17.5q-51 0 -88 -3t-77.5 -12t-69 -25.5t-56.5 -42.5t-46.5 -65t-33 -92t-21 -123t-6.5 -158zM287 123q48 -49 119 -66.5t180 -17.5q70 0 121 7t99 26t79.5 53.5t55.5 88t35 131.5t11 183q0 293 -94 414z" />
<glyph unicode="&#xf9;" d="M139 332v758h49v-758q0 -127 77.5 -213t209.5 -86q127 0 223 29t220 96v932h49v-1088h-29l-20 127q-221 -145 -443 -145q-155 0 -245.5 102.5t-90.5 245.5zM266 1493h53l248 -272h-28z" />
<glyph unicode="&#xfa;" d="M139 332v758h49v-758q0 -127 77.5 -213t209.5 -86q127 0 223 29t220 96v932h49v-1088h-29l-20 127q-221 -145 -443 -145q-155 0 -245.5 102.5t-90.5 245.5zM539 1221l247 272h54l-273 -272h-28z" />
<glyph unicode="&#xfb;" d="M139 332v758h49v-758q0 -127 77.5 -213t209.5 -86q127 0 223 29t220 96v932h49v-1088h-29l-20 127q-221 -145 -443 -145q-155 0 -245.5 102.5t-90.5 245.5zM274 1221l271 266h41l245 -266h-36l-230 235l-254 -235h-37z" />
<glyph unicode="&#xfc;" d="M139 332v758h49v-758q0 -127 77.5 -213t209.5 -86q127 0 223 29t220 96v932h49v-1088h-29l-20 127q-221 -145 -443 -145q-155 0 -245.5 102.5t-90.5 245.5zM257 1257q0 15 10 25t25 10t25 -10t10 -25t-10 -25.5t-25 -10.5t-25 10.5t-10 25.5zM777 1257q0 15 11 25t26 10 t25 -10t10 -25t-10 -25.5t-25 -10.5t-26 10.5t-11 25.5z" />
<glyph unicode="&#xfd;" horiz-adv-x="1083" d="M57 1087h54l303 -849q55 -153 159 -183q33 -9 48 -4l350 1036h51l-477 -1431l-94 -209h-25l178 553q-18 1 -35.5 4t-48.5 16.5t-56.5 36t-53 66t-45.5 102.5zM525 1221l248 272h53l-272 -272h-29z" />
<glyph unicode="&#xfe;" horiz-adv-x="1150" d="M193 -553v2155h49v-637q49 36 198.5 88.5t243.5 52.5q81 0 144 -32t102 -84t64.5 -126t35.5 -151t10 -166q0 -65 -3 -118.5t-12.5 -113.5t-25.5 -106.5t-43 -91t-63.5 -73.5t-89.5 -46.5t-119 -17.5q-83 0 -218 21.5t-224 57.5v-612h-49zM242 88q124 -35 216.5 -47 t225.5 -12q164 0 235.5 125t71.5 397q0 257 -82.5 381.5t-224.5 124.5q-26 0 -56.5 -3.5t-55 -8t-60 -14.5t-55 -15.5t-59 -20t-53 -19.5t-55.5 -21t-48 -19v-848z" />
<glyph unicode="&#xff;" horiz-adv-x="1083" d="M57 1087h54l303 -849q55 -153 159 -183q33 -9 48 -4l350 1036h51l-477 -1431l-94 -209h-25l178 553q-18 1 -35.5 4t-48.5 16.5t-56.5 36t-53 66t-45.5 102.5zM244 1257q0 15 10 25t25 10t24.5 -10t9.5 -25t-9.5 -25.5t-24.5 -10.5t-25 10.5t-10 25.5zM764 1257 q0 15 11 25t26 10t25 -10t10 -25t-10 -25.5t-25 -10.5t-26 10.5t-11 25.5z" />
<glyph unicode="&#x152;" horiz-adv-x="2158" d="M180 739q0 116 7.5 211t21 169t36 131.5t48 98.5t63 70t74.5 46.5t88 27t99 13t112 3.5q68 0 118 -4t103 -14.5t92 -31t75 -52.5t63 -80.5t47 -112.5q0 150 72 220t186 65l547 -20v-29h-547q-209 0 -209 -217q0 -313 2 -465l672 -10v-29l-672 -10l-2 -467 q0 -54 13.5 -93.5t34 -61.5t52.5 -34.5t61 -16t68 -3.5h527v-29l-527 -20q-49 -2 -87.5 3.5t-75.5 23t-61.5 49t-39 84.5t-14.5 125q-29 -90 -73.5 -148t-110.5 -88t-137.5 -40.5t-176.5 -10.5q-67 0 -116 3t-101.5 12.5t-89 26.5t-73.5 45t-61.5 68t-46.5 95t-34.5 127.5 t-19.5 164.5t-7 205zM229 739q0 -115 6 -205t20.5 -161.5t34.5 -122.5t52 -88.5t67.5 -60.5t87 -36.5t105.5 -18.5t127 -5q76 0 133.5 6.5t108.5 22.5t87 41t66 65.5t48.5 93t31.5 126t18 161t5 201.5q0 133 -10 235t-28 176.5t-50.5 126.5t-69.5 84t-92.5 50t-112 24 t-135.5 6q-77 0 -124.5 -3.5t-106.5 -18.5t-94 -44t-72.5 -81.5t-57.5 -129t-32.5 -187.5t-12.5 -257z" />
<glyph unicode="&#x153;" horiz-adv-x="1925" d="M139 528q0 223 45 346.5t139.5 173.5t262.5 50q183 0 283 -67.5t137 -209.5q16 87 46 142t81.5 84t112 39t155.5 10q61 0 102 -2.5t88 -11t77.5 -24.5t61 -44.5t47.5 -69t27.5 -99t10.5 -134.5q0 -115 -68 -157t-211 -42h-500q0 -121 15.5 -208t40.5 -137.5t66.5 -80 t83.5 -38.5t101 -9q88 0 173 6.5t127 12.5t151 22v-33q-121 -34 -220.5 -46.5t-230.5 -10.5q-147 1 -224.5 64t-108.5 204q-36 -145 -135 -206.5t-289 -61.5q-136 0 -222 28.5t-136.5 96t-69.5 164.5t-19 249zM188 528q0 -128 17.5 -216.5t47 -142t82 -82.5t109 -38.5 t142.5 -9.5q84 0 143 11t110.5 42t82.5 85t48 141t17 210q0 94 -9.5 168.5t-26.5 129t-44 94t-58.5 64.5t-74.5 39.5t-87 20t-101 5.5q-59 0 -100 -4t-86 -16.5t-74.5 -35t-57.5 -61t-44.5 -93.5t-26 -132.5t-9.5 -178.5zM1036 559h500q41 0 68.5 2t61 10.5t53 24t33 45 t13.5 70.5q0 65 -8 115t-21.5 86t-38 60.5t-51 39t-68 22.5t-81 10.5t-96.5 2.5q-76 0 -126.5 -6.5t-94.5 -25.5t-69 -52t-43.5 -88.5t-25 -131t-6.5 -184.5z" />
<glyph unicode="&#x178;" horiz-adv-x="1267" d="M125 1499h55l467 -903l508 903h55l-538 -967v-532h-49v532zM372 1669q0 15 10 25t25 10t24.5 -10t9.5 -25t-9.5 -26t-24.5 -11t-25 11t-10 26zM892 1669q0 15 11 25t26 10t25 -10t10 -25t-10 -26t-25 -11t-26 11t-11 26z" />
<glyph unicode="&#x2c6;" horiz-adv-x="833" d="M139 1087l271 267h41l245 -267h-37l-229 236l-254 -236h-37zM451 1354z" />
<glyph unicode="&#x2dc;" horiz-adv-x="968" d="M139 1171q46 40 72 60t67 39.5t78 19.5q27 0 65 -23.5t69.5 -51t66.5 -51t57 -23.5q35 0 75.5 19t65 37.5t56.5 44.5q5 5 8 7l12 -14q-42 -42 -69 -65t-67.5 -42.5t-80.5 -19.5q-29 0 -67 23.5t-69 51t-65.5 51t-56.5 23.5q-16 0 -31.5 -2.5t-32 -9t-27.5 -11.5 t-30 -17.5t-27 -18t-31 -22t-30 -21.5z" />
<glyph unicode="&#x2000;" horiz-adv-x="957" />
<glyph unicode="&#x2001;" horiz-adv-x="1915" />
<glyph unicode="&#x2002;" horiz-adv-x="957" />
<glyph unicode="&#x2003;" horiz-adv-x="1915" />
<glyph unicode="&#x2004;" horiz-adv-x="638" />
<glyph unicode="&#x2005;" horiz-adv-x="478" />
<glyph unicode="&#x2006;" horiz-adv-x="319" />
<glyph unicode="&#x2007;" horiz-adv-x="319" />
<glyph unicode="&#x2008;" horiz-adv-x="239" />
<glyph unicode="&#x2009;" horiz-adv-x="383" />
<glyph unicode="&#x200a;" horiz-adv-x="106" />
<glyph unicode="&#x2010;" horiz-adv-x="692" d="M55 569v49h582v-49h-582z" />
<glyph unicode="&#x2011;" horiz-adv-x="692" d="M55 569v49h582v-49h-582z" />
<glyph unicode="&#x2012;" horiz-adv-x="692" d="M55 569v49h582v-49h-582z" />
<glyph unicode="&#x2013;" horiz-adv-x="1079" d="M55 563v51h969v-51h-969z" />
<glyph unicode="&#x2014;" horiz-adv-x="1536" d="M55 567v51h1426v-51h-1426z" />
<glyph unicode="&#x2018;" horiz-adv-x="346" d="M133 1206v213q0 44 19.5 63.5t39.5 17.5l19 -3v-14q-17 1 -26.5 -6.5t-11 -15t-1.5 -17.5v-76h14q12 0 21.5 -9t9.5 -24v-129q0 -32 -31 -32h-25q-28 0 -28 32z" />
<glyph unicode="&#x2019;" horiz-adv-x="346" d="M131 1335l3 131q0 33 30 33h23q30 0 30 -33l-2 -215q0 -28 -8 -46t-19.5 -23.5t-22.5 -7.5t-19 0l-8 2v14q39 -2 39 37v78h-15q-13 0 -22 8t-9 22z" />
<glyph unicode="&#x201a;" horiz-adv-x="346" d="M133 31v129q0 35 30 35h23q31 0 31 -35v-213q0 -44 -19.5 -63.5t-39.5 -17.5l-19 3v14q17 -1 26.5 6.5t11 15t1.5 17.5v78h-15q-13 0 -21.5 8.5t-8.5 22.5z" />
<glyph unicode="&#x201c;" horiz-adv-x="522" d="M122 1206v213q0 44 19 63.5t37 17.5l19 -3v-14q-17 1 -25.5 -7t-9.5 -14.5t-1 -17.5v-76h12q13 0 23 -9.5t10 -23.5v-129q0 -32 -33 -32h-23q-28 0 -28 32zM318 1206v213q0 44 19.5 63.5t38.5 17.5l20 -3v-14q-17 1 -26.5 -6.5t-11 -15t-1.5 -17.5v-76h15q12 0 21 -9 t9 -24v-129q0 -32 -30 -32h-23q-31 0 -31 32z" />
<glyph unicode="&#x201d;" horiz-adv-x="520" d="M122 1335v131q0 33 30 33h23q31 0 31 -33v-215q0 -28 -8 -46t-19.5 -23.5t-23 -7.5t-19.5 0l-8 2v14q17 -1 26 6.5t10 13.5t1 17v78h-13q-13 0 -21.5 8t-8.5 22zM318 1335v131q0 33 31 33h25q28 0 28 -33v-215q0 -28 -8 -46t-19.5 -23.5t-23 -7.5t-19.5 0l-8 2v14 q39 -2 39 37v78h-14q-13 0 -22 8t-9 22z" />
<glyph unicode="&#x201e;" horiz-adv-x="520" d="M122 35v129q0 35 30 35h23q31 0 31 -35v-213q0 -44 -19.5 -63.5t-38.5 -17.5l-20 3v14q17 -1 26 7t10 14.5t1 17.5v78h-13q-13 0 -21.5 8.5t-8.5 22.5zM318 35v129q0 35 31 35h25q28 0 28 -35v-213q0 -44 -19.5 -63.5t-38.5 -17.5l-20 3v14q17 -1 26.5 6.5t11 15 t1.5 17.5v78h-14q-13 0 -22 8.5t-9 22.5z" />
<glyph unicode="&#x2022;" horiz-adv-x="657" d="M236 750v61q0 33 17 52.5t50 19.5h49q72 0 72 -72v-61q0 -66 -72 -66h-49q-31 0 -49 17.5t-18 48.5z" />
<glyph unicode="&#x2026;" horiz-adv-x="1654" d="M223 25v127q0 24 25 24h22q25 0 25 -24v-127q0 -25 -25 -25h-22q-10 0 -17.5 7t-7.5 18zM780 25v127q0 24 25 24h22q25 0 25 -24v-127q0 -25 -25 -25h-22q-11 0 -18 7t-7 18zM1337 25v127q0 24 25 24h22q25 0 25 -24v-127q0 -25 -25 -25h-22q-10 0 -17.5 7t-7.5 18z" />
<glyph unicode="&#x202f;" horiz-adv-x="383" />
<glyph unicode="&#x2039;" horiz-adv-x="724" d="M139 725l422 416l33 -33l-389 -383l401 -391l-37 -35z" />
<glyph unicode="&#x203a;" horiz-adv-x="724" d="M139 334l398 391l-390 383l37 33l422 -416l-434 -426z" />
<glyph unicode="&#x205f;" horiz-adv-x="478" />
<glyph unicode="&#x20ac;" horiz-adv-x="1218" d="M55 557v29l181 6v289l-181 6v26l181 9v17q0 52 1 84.5t9.5 99.5t25.5 112.5t52.5 103t84.5 92.5t128 60t178 25q87 0 213 -11t227 -30v-29q-30 2 -79.5 6t-167 9.5t-193.5 4.5q-80 0 -144.5 -16.5t-109 -43t-77 -67.5t-51.5 -85t-30.5 -102t-14.5 -111t-3 -119l581 -7 v-28l-581 -6v-289l581 -8v-29q-37 0 -97.5 -0.5t-189 -1t-212.5 -2t-82 -2.5q-3 -139 46.5 -253.5t149.5 -185t234 -73.5q99 -3 211 3t174 14l63 7v-30q-116 -27 -209 -35t-239 -8q-37 0 -76.5 6.5t-87.5 24t-91 44.5t-85 71.5t-72 100.5t-48.5 137t-18.5 177z" />
<glyph unicode="&#x2122;" horiz-adv-x="1441" d="M55 1470v29h531v-29h-250v-686h-29v686h-252zM666 784l55 715h22l297 -670l273 670h24l64 -715h-25l-59 650l-264 -650h-23l-289 652l-49 -652h-26z" />
<glyph unicode="&#x25fc;" horiz-adv-x="1085" d="M0 0v1085h1085v-1085h-1085z" />
<glyph unicode="&#xfb03;" horiz-adv-x="1968" d="M55 1038v25l199 24v183q0 31 1 54.5t6.5 58.5t15.5 61t29 55t45.5 47.5t67 30.5t91.5 12q23 0 54 -4t49.5 -7t64 -12.5t57.5 -11.5v-28l-219 14q-103 6 -158 -59.5t-55 -210.5v-183h690v109q0 189 92 301.5t271 112.5q196 0 366 -39v-29l-352 17q-149 6 -238.5 -84.5 t-89.5 -278.5v-109l760 -14v-1073h-49v1038h-711v-1038h-49v1038h-690v-1038h-49v1038h-199z" />
<glyph unicode="&#xfb04;" horiz-adv-x="2203" d="M55 1038v25l199 24v183q0 31 1 54.5t6.5 58.5t15.5 61t29 55t45.5 47.5t67 30.5t91.5 12q23 0 54 -4t49.5 -7t64 -12.5t57.5 -11.5v-28l-219 14q-103 6 -158 -59.5t-55 -210.5v-183h682v109q0 86 18.5 158.5t57 131t105 91.5t155.5 33h489v-1217q0 -288 140 -329 q15 -5 49 -9q137 -22 151 -22v-27h-137q-130 0 -191 93t-61 294v1172h-426q-140 0 -220.5 -91.5t-80.5 -277.5v-109h301v-49h-301v-1038h-49v1038h-682v-1038h-49v1038h-199z" />
</font>
</defs>
</svg>
