<?xml version="1.0" standalone="no"?>
<!DOCTYPE svg PUBLIC "-//W3C//DTD SVG 1.1//EN" "http://www.w3.org/Graphics/SVG/1.1/DTD/svg11.dtd" >
<svg xmlns="http://www.w3.org/2000/svg">
<metadata>
This is a custom SVG webfont generated by Font Squirrel.
Copyright   : Copyright c 2010 by Julia Petretta wwwjuliapetrettacom with Reserved Font Name Kreon
Designer    : Julia Petretta
Foundry     : Julia Petretta
</metadata>
<defs>
<font id="KreonRegular" horiz-adv-x="1333" >
<font-face units-per-em="2048" ascent="1638" descent="-410" />
<missing-glyph horiz-adv-x="491" />
<glyph unicode=" "  horiz-adv-x="491" />
<glyph unicode="&#x09;" horiz-adv-x="491" />
<glyph unicode="&#xa0;" horiz-adv-x="491" />
<glyph unicode="!" horiz-adv-x="548" d="M135 1386l240 27l43 -78l-76 -850h-141zM152 112.5q0 51.5 34.5 86t85 34.5t87 -35.5t36.5 -85t-36.5 -85t-87 -35.5t-85 34.5t-34.5 86z" />
<glyph unicode="&#x22;" horiz-adv-x="661" d="M74 1411l190 21l35 -62l-59 -414h-113zM362 1411l191 21l35 -62l-60 -414h-112z" />
<glyph unicode="#" horiz-adv-x="1323" d="M59 602l27 47h281l86 234h-283l-27 106l27 47h338l141 379h135l23 -29l-131 -350h207l137 379h135l23 -29l-127 -350h192q12 0 12 -16v-137h-262l-84 -234h250q12 0 12 -16v-137h-319l-143 -398h-136l-22 27l135 371h-209l-145 -398h-135l-23 27l135 371h-223zM535 649 h206l84 234h-204z" />
<glyph unicode="$" horiz-adv-x="987" d="M68 1028q0 92 25.5 151.5t70.5 104.5q90 90 242 121v385h184v-377q137 -12 272 -59l29 -353h-141l-91 222q-61 20 -154 20t-157.5 -43t-64.5 -131q0 -102 102 -168q45 -31 100.5 -54.5t128 -56t136 -77.5t102.5 -95q74 -92 74 -200.5t-27 -175t-72 -115.5 q-90 -92 -237 -123v-397h-184v387q-182 8 -318 76v346h148l36 -219q88 -33 177 -33q176 0 241 115q23 39 23 101t-38 112.5t-125 93.5t-172 77.5t-153.5 83t-112.5 119t-44 162.5z" />
<glyph unicode="%" horiz-adv-x="1472" d="M63 1059q0 61 17.5 123.5t52.5 113.5q80 117 219 117t217 -106q72 -100 72 -246q0 -154 -80 -256q-80 -104 -209 -105q-143 0 -221 119q-68 101 -68 240zM180 27l907 1388h173l8 -29l-897 -1386h-178zM215 1058q0 -93 38 -157.5t99 -64.5t98 65.5t37 158.5t-35.5 156.5 t-100 63.5t-100.5 -64.5t-36 -157.5zM836 348q0 139 69 238q80 117 217 116q139 0 217 -108q72 -96 72 -246q0 -152 -78 -254q-80 -102 -211 -102q-139 0 -219 117q-67 100 -67 239zM989 346q0 -94 37 -157.5t98.5 -63.5t97 64.5t35.5 158.5t-35.5 157.5t-100 63.5 t-98.5 -64.5t-34 -158.5z" />
<glyph unicode="&#x26;" horiz-adv-x="1376" d="M66 412q0 217 258 422q-111 188 -111 319q0 150 94 244q100 100 244.5 100t226.5 -81t82 -206q0 -186 -262 -407q88 -121 182 -230l107 -127q53 111 78 226h-93l-32 143h319l23 -29q-45 -268 -150 -456l-16 -27q123 -127 158 -137q8 2 25.5 15.5t37.5 27.5l59 39l86 -189 q-78 -66 -209 -65.5t-290 137.5q-150 -139 -365 -139q-197 0 -325 123q-127 119 -127 297zM279 402.5q0 -97.5 68.5 -166t187 -68.5t217.5 94q-170 199 -336 428q-63 -61 -100 -125.5t-37 -162zM408 1194q0 -98 98 -258q160 145 160 274q0 66 -36 99.5t-96.5 33.5t-93 -46 t-32.5 -103z" />
<glyph unicode="'" horiz-adv-x="372" d="M74 1391l190 20l35 -61l-59 -414h-113z" />
<glyph unicode="(" horiz-adv-x="565" d="M104 600q0 160 23 302t55 259q57 201 146 359h172q-133 -266 -183 -633q-18 -137 -18 -293t21.5 -296t52.5 -257q43 -166 127 -373h-172l-15 31q-129 260 -186 604q-23 137 -23 297z" />
<glyph unicode=")" horiz-adv-x="565" d="M66 -332q84 207 120 348q80 307 80 580q0 522 -200 924h172q223 -418 223 -926q0 -266 -76 -543q-47 -168 -133 -352l-14 -31h-172z" />
<glyph unicode="*" horiz-adv-x="741" d="M72 1038l12 47l231 86l-243 78l32 115l50 12l188 -153l-47 247l115 25l32 -35l-41 -237l187 170l82 -88l-13 -48l-231 -86l244 -77l-33 -115l-49 -12l-189 153l47 -248l-114 -24l-33 35l41 237l-186 -170zM336 1169l18 -26h35l14 28l-16 29h-37z" />
<glyph unicode="+" horiz-adv-x="821" d="M70 645v125l26 29h242v262h154v-262h256v-154h-256v-307h-127l-27 24v283h-268z" />
<glyph unicode="," horiz-adv-x="438" d="M45 -211l102 209l-53 235l215 39q23 -90 23 -156.5t-17.5 -130t-44.5 -116.5q-49 -100 -118 -170l-107 61v29z" />
<glyph unicode="-" horiz-adv-x="817" d="M119 500v125l24 28h543q12 0 12 -16v-137h-579z" />
<glyph unicode="." horiz-adv-x="425" d="M92 112.5q0 51.5 35 86t85 34.5t87 -35.5t37 -85t-36 -85t-87 -35.5t-86 34.5t-35 86z" />
<glyph unicode="/" horiz-adv-x="944" d="M45 27l672 1386h184l-2 -29l-672 -1384h-176z" />
<glyph unicode="0" horiz-adv-x="1193" d="M94 702q0 483 260 650q96 61 242 61q266 0 395 -221q109 -184 109 -490q0 -481 -262 -649q-96 -61 -242 -61q-266 0 -395 223q-107 182 -107 487zM309 702q0 -371 158 -493q53 -41 129 -41q145 0 221 156q68 139 68 378q0 373 -158 494q-55 41 -132 41t-131 -42t-87 -114 q-68 -141 -68 -379z" />
<glyph unicode="1" horiz-adv-x="741" d="M51 1286l428 133l41 -18v-1239l191 -25v-137h-605l-22 135l231 35v1016l-233 -47z" />
<glyph unicode="2" horiz-adv-x="1060" d="M45 1135q72 131 189.5 204.5t265.5 73.5q180 0 295 -86q131 -96 131 -283q0 -190 -226 -477q-119 -154 -212 -250t-132 -141h412l80 219h135l-43 -395h-834l-24 141q41 45 102.5 109.5t130 141.5t138 161t125.5 168q125 182 133 303v14q0 98 -68 154q-59 45 -131 45 q-102 0 -182 -53l-56 -172z" />
<glyph unicode="3" horiz-adv-x="1071" d="M55 1139q72 131 196 202.5t296 71.5q162 0 280 -90q129 -100 129 -272q0 -117 -62.5 -202t-166.5 -122q92 -31 160 -106q86 -96 86 -212t-42 -193t-108 -126q-131 -98 -301 -98q-287 0 -456 139l108 164q150 -127 320 -127q135 0 199.5 63.5t64.5 140.5t-28 122t-75 75 q-86 55 -235 56h-105v176q213 0 308 41q119 53 118 196q0 100 -67 154q-59 47 -139 47t-124 -17.5t-73 -33.5l-76 -168z" />
<glyph unicode="4" horiz-adv-x="1060" d="M4 557l590 858h221v-835h168v-177h-168v-235l166 -27v-139h-651v139l282 33v229h-540zM205 580h407v583z" />
<glyph unicode="5" horiz-adv-x="1028" d="M39 133l100 158q133 -123 301 -123q131 0 219 86q86 82 86 213q0 164 -116 240q-94 61 -287 61q-94 0 -180 -12v592l65 65h654v-176h-525v-295h50q35 0 99 -3t150 -31.5t154 -84.5q152 -127 152 -342q0 -213 -160 -354q-156 -135 -373 -135q-125 0 -224 41t-165 100z" />
<glyph unicode="6" horiz-adv-x="1140" d="M88 694q0 311 148 514q72 100 175 158.5t210.5 58.5t174 -21.5t115.5 -51.5q76 -47 131 -127l-194 -138l-103 146q-49 16 -107 16t-118.5 -37.5t-105.5 -105.5q-96 -141 -109 -344q47 53 126 93t179.5 40t182 -29.5t141.5 -87.5q127 -123 127 -327q0 -190 -123 -320 q-131 -139 -326 -139q-264 0 -407 227q-117 188 -117 475zM336 430q70 -262 266 -262q121 0 184 84q59 76 60 192q0 121 -70 199t-174 78q-113 0 -188 -84q-74 -82 -78 -207z" />
<glyph unicode="7" horiz-adv-x="909" d="M55 989v424h807l37 -53l-428 -1360h-211l-10 55l448 1182h-462l-52 -248h-129z" />
<glyph unicode="8" horiz-adv-x="1089" d="M84 377q0 242 250 381q-78 51 -132.5 125.5t-54.5 172t36 162t93 109.5q121 98 273 98q158 0 274 -90q125 -100 125 -254q0 -143 -125 -245q-35 -31 -73 -58q127 -76 170 -133q86 -111 86 -248q0 -176 -142 -295q-131 -113 -317 -112q-190 0 -322 96q-141 107 -141 291z M299 383q0 -104 86 -166q72 -51 143.5 -51t116.5 17.5t76 45.5q70 66 70 152q0 139 -185 233q-51 27 -108 56q-199 -109 -199 -287zM362 1100.5q0 -56.5 19.5 -91t50.5 -59.5q47 -39 150 -86q66 41 108.5 91.5t42.5 123t-51 121.5t-133 49t-134.5 -46t-52.5 -102.5z" />
<glyph unicode="9" horiz-adv-x="1112" d="M86 133l115 160q143 -125 297 -125q274 0 303 446q-61 -59 -140 -85.5t-155 -26.5t-156 28.5t-137 83.5q-125 117 -125 324q0 203 117 340q125 143 344 143q248 0 371 -233q100 -190 100 -496q0 -293 -127 -487q-61 -96 -157.5 -154.5t-203 -58.5t-174 15.5t-120.5 37.5 q-74 31 -152 88zM303 956q0 -137 70 -211q63 -68 164 -67q43 0 86 15.5t77 45.5q80 72 88 176q-35 229 -153 304q-43 27 -100 26q-100 0 -166 -74t-66 -215z" />
<glyph unicode=":" horiz-adv-x="481" d="M119 399.5q0 51.5 35.5 86t86 34.5t86 -35.5t35.5 -85t-35.5 -85t-86 -35.5t-86 34.5t-35.5 86zM119 884q0 50 35.5 86t86 36t86 -37t35.5 -87.5t-35.5 -85t-87 -34.5t-86 36t-34.5 86z" />
<glyph unicode=";" horiz-adv-x="499" d="M90 -211l103 209l-54 235l215 39q23 -90 23 -156.5t-17.5 -130t-44.5 -116.5q-49 -100 -118 -170l-107 61v29zM117 679q0 50 35.5 86t86 36t86 -37t35.5 -87t-35.5 -85t-87 -35t-86 36t-34.5 86z" />
<glyph unicode="&#x3c;" horiz-adv-x="866" d="M59 627v139l670 405v-192l-473 -285l473 -282v-199z" />
<glyph unicode="=" horiz-adv-x="923" d="M125 475v156h674v-156h-674zM125 733v156h674v-156h-674z" />
<glyph unicode="&#x3e;" horiz-adv-x="866" d="M137 213v199l473 282l-473 285v192l670 -405v-139z" />
<glyph unicode="?" horiz-adv-x="835" d="M80 1028l35 326q174 61 282.5 61t177 -25.5t113.5 -68.5q88 -84 88 -215q0 -174 -129 -293q-39 -35 -78 -63l-75 -54q-94 -68 -103 -168q-2 -25 -2 -43l-162 -2l-4 21q-8 29 -8 89t25.5 105t64.5 80t84 65.5t84 65.5q90 78 90 181q0 61 -44 107t-130 46q-88 0 -129 -18 l-55 -197h-125zM193 113.5q0 50.5 34.5 85t84.5 34.5t87 -35.5t37 -85t-37 -85t-87 -35.5t-84.5 35.5t-34.5 86z" />
<glyph unicode="@" horiz-adv-x="1701" d="M63 553q0 184 67 329.5t177 247.5q229 207 567 207q326 0 539 -207q102 -96 160.5 -229t58.5 -261t-27.5 -221t-78.5 -165q-113 -156 -289 -156q-119 0 -174 64q-98 -63 -221 -64q-166 0 -275 103q-121 115 -121 319q0 231 152 348q117 88 272 88q109 0 203 -45l74 29 l55 -18v-586q0 -43 16.5 -55.5t43 -12.5t59.5 24.5t59 72.5q59 102 59.5 235t-38.5 234.5t-111 173.5q-156 156 -413 155q-266 0 -443 -172q-176 -172 -176 -442q0 -313 184 -486q168 -160 455 -159q143 0 240 39l37 -9l-58 -176q-100 -31 -261 -30.5t-307.5 56.5 t-252.5 163q-232 225 -232 606zM643 528q0 -141 74 -217q59 -61 176 -61q61 0 119 47q-2 20 -2 39v440q-61 31 -118.5 31t-100.5 -16.5t-76 -49.5q-72 -76 -72 -213z" />
<glyph unicode="A" horiz-adv-x="1245" d="M-2 127l106 37l414 1251h197l436 -1251l94 -37l-22 -127h-482v121l181 43l-99 303h-438l-94 -303l176 -41v-123h-442zM438 643h328l-168 514z" />
<glyph unicode="B" horiz-adv-x="1181" d="M94 1262v153h473q221 0 353 -104q125 -100 124 -267q0 -117 -65 -208q-59 -84 -145 -111q111 -23 186 -102q82 -86 82 -213t-44 -205t-116 -123q-123 -82 -332 -82h-489l-21 143l125 29v1077zM430 176h160q201 0 270 115q27 45 27 110.5t-25.5 108.5t-68.5 68 q-80 45 -207 45h-156v-447zM430 799h90q158 0 233.5 54t75.5 171q0 215 -274 215h-125v-440z" />
<glyph unicode="C" horiz-adv-x="1191" d="M70 692q0 340 209 541q190 182 483 182q131 0 303 -39l39 -372h-139l-80 221q-39 14 -135.5 14t-185.5 -43t-150 -115q-129 -152 -129 -368q0 -236 141 -389q143 -156 381 -156q88 0 161.5 26.5t106.5 51.5l60 -162q-129 -92 -363 -92q-283 0 -483 180q-219 198 -219 520 z" />
<glyph unicode="D" horiz-adv-x="1296" d="M100 145l125 29v1077l-123 13v151h387q334 0 531 -178q203 -182 203 -520t-195 -529q-193 -188 -530 -188h-377zM428 176l16 -2q563 0 564 545q0 246 -148 387q-143 135 -383 135l-49 -2v-1063z" />
<glyph unicode="E" horiz-adv-x="1103" d="M98 145l125 27v1079l-123 11v153h873l41 -385h-129l-78 209h-381v-430h324v-176h-324v-457h401l72 207h129l-41 -383h-868z" />
<glyph unicode="F" horiz-adv-x="1046" d="M98 145l125 27v1079l-123 11v153h873l43 -385h-127l-82 209h-381v-430h324v-176h-324v-453l332 -47l-13 -133h-626z" />
<glyph unicode="G" horiz-adv-x="1259" d="M68 690q0 328 198 527q199 199 514 198q154 0 320 -43l30 -371h-149l-74 228q-61 10 -151 10t-180.5 -41t-153.5 -113q-139 -158 -139 -389q0 -240 147 -383q150 -145 399 -145q70 0 111 8l2 301l-233 29l36 145h400v-622q-147 -37 -321.5 -37t-308.5 47t-234 137 q-213 190 -213 514z" />
<glyph unicode="H" horiz-adv-x="1376" d="M100 147l123 23v1079l-123 11v155h430l21 -153l-123 -21v-424h520v432l-117 11v155h424l21 -153l-123 -21v-1075l123 -16v-150h-424l-21 147l117 23v471h-520v-475l125 -16v-150h-432z" />
<glyph unicode="I" horiz-adv-x="653" d="M94 147l129 23v1079l-129 11v155h447l20 -153l-133 -21v-1075l133 -16v-150h-448z" />
<glyph unicode="J" horiz-adv-x="751" d="M16 96l109 162q90 -84 149 -84q76 0 76 113v954l-157 21l20 153h469v-155l-127 -11v-944q0 -182 -109 -262q-70 -51 -161 -51q-160 0 -269 104z" />
<glyph unicode="K" horiz-adv-x="1255" d="M94 147l129 23v1079l-129 8v158h438l19 -151l-123 -23v-577l477 581l-145 23v147h452v-149l-67 -15l-393 -473l354 -612l113 -21v-145h-285l-324 608l-182 -219v-223l125 -16v-150h-440z" />
<glyph unicode="L" horiz-adv-x="1046" d="M98 145l125 23v1083l-123 11v153h441l18 -151l-133 -23v-1065h401l72 207h129l-41 -383h-868z" />
<glyph unicode="M" horiz-adv-x="1748" d="M92 145l129 27v1075l-102 10v158h422l331 -1147l345 1147h399l20 -158l-106 -16v-1075l112 -23l-8 -143h-397l-16 147l118 27v1053l-362 -1196h-236l-350 1206v-1069l121 -23v-145h-395z" />
<glyph unicode="N" horiz-adv-x="1425" d="M96 145l129 27v1075l-123 13v155h428l517 -1218v1050l-127 17v151h403l27 -153l-131 -25v-1237h-304l-518 1221v-891l2 -146q0 -12 2 -18l117 -21v-145h-397z" />
<glyph unicode="O" d="M88 705q0 303 143 499q156 213 435 213t436 -213q145 -199 145 -499q0 -301 -145 -500q-158 -213 -436 -213q-279 0 -435 213q-143 197 -143 500zM303 700q0 -221 90 -370q96 -162 273 -162q178 0 276 162q90 147 90 370q0 225 -90 377q-100 164 -276 164t-273 -164 q-90 -152 -90 -377z" />
<glyph unicode="P" horiz-adv-x="1132" d="M94 143l131 29v1077l-129 11v155h432q285 0 430 -129q131 -119 132 -323q0 -240 -162 -359q-143 -104 -404 -104h-94v-322q51 -10 297 -41l-6 -137h-606zM430 676h86q188 0 279 86q80 76 79 203q0 274 -372 274h-72v-563z" />
<glyph unicode="Q" d="M88 705q0 303 143 499q156 213 435 213t436 -213q145 -199 145 -499q0 -301 -145 -500q-158 -213 -436 -213q-279 0 -435 213q-143 197 -143 500zM303 700q0 -221 90 -370q96 -162 273 -162q178 0 276 162q90 147 90 370q0 225 -90 377q-100 164 -276 164t-273 -164 q-90 -152 -90 -377zM530 -131l80 86l430 -154l13 -67l-183 -162q-88 72 -171 146.5t-169 150.5z" />
<glyph unicode="R" horiz-adv-x="1196" d="M94 143l131 29v1077l-129 11v155h432q285 0 430 -129q131 -119 132 -323q0 -141 -72 -239.5t-195 -150.5l199 -407l117 -25v-141h-285l-229 524q-49 -6 -101 -6h-94v-348l162 -29v-141h-477zM430 694h86q182 0 279 88q80 70 79 183q0 274 -372 274h-72v-545z" />
<glyph unicode="S" horiz-adv-x="1038" d="M96 1035.5q0 99.5 36 167t97 114.5q129 98 316 98q180 0 346 -61l29 -353h-142l-90 222q-61 20 -154.5 20t-158 -43t-64.5 -131q0 -102 103 -168q45 -31 100 -54.5t128 -56t136.5 -77.5t102.5 -95q74 -92 73.5 -210.5t-40.5 -195.5t-107 -126q-127 -94 -336 -94t-365 78 l15 346h143l37 -219q88 -33 176 -33q176 0 242 115q23 39 22.5 101t-38 112.5t-124.5 93.5t-172 77.5t-154 83t-113 119t-44 170z" />
<glyph unicode="T" horiz-adv-x="1187" d="M29 1036l43 379h1044l45 -379h-125l-86 203h-256v-1063l238 -41l-19 -135h-630l-27 135l233 41v1063h-251l-84 -203h-125z" />
<glyph unicode="U" horiz-adv-x="1325" d="M61 1262v153h474v-151l-142 -19v-768q0 -145 72 -227t219 -82q190 0 258 164q25 59 25 147v768l-125 19v149h413v-151l-116 -21v-772q0 -238 -144 -365q-125 -115 -317 -114q-236 0 -363 126t-127 353v778z" />
<glyph unicode="V" horiz-adv-x="1185" d="M14 1276v139h463l17 -127l-187 -39l301 -930l305 934l-184 35v127h449v-139l-78 -27l-414 -1249h-188l-410 1249z" />
<glyph unicode="W" horiz-adv-x="1830" d="M31 1274v141h440l18 -127l-149 -33l186 -1024l305 1147h205l307 -1155l193 1037l-168 30l12 125h441v-139l-121 -39l-242 -1237h-270l-275 1047l-276 -1047h-272l-232 1243z" />
<glyph unicode="X" horiz-adv-x="1175" d="M41 0v127l90 14l334 545l-338 561l-86 25v143h457l16 -125l-145 -30l239 -392l230 389l-121 29v129h416v-149l-89 -15l-333 -549l331 -542l91 -25v-135h-463v127l129 10l-232 383l-225 -385l115 -14v-121h-416z" />
<glyph unicode="Y" horiz-adv-x="1153" d="M8 1262v153h436l15 -135l-131 -25l278 -512l250 514l-117 23v135h400v-153l-88 -21l-369 -737v-334l238 -41l-21 -129h-635l-20 129l235 41v346l-389 727z" />
<glyph unicode="Z" horiz-adv-x="1132" d="M76 158l727 1081h-531l-41 -219h-129v395h906l24 -190q-66 -100 -151.5 -233.5t-179 -276t-186.5 -282.5t-169 -257h522l39 217h131v-393h-929z" />
<glyph unicode="[" horiz-adv-x="657" d="M160 -338v1751l16 25h475q12 0 13 -15v-137h-310v-1501h310v-135q0 -16 -13 -17h-469z" />
<glyph unicode="\" horiz-adv-x="942" d="M43 1391v24h182l674 -1388l-16 -27h-166z" />
<glyph unicode="]" horiz-adv-x="657" d="M-6 -215h309v1501h-309v137q0 14 12 15h475l17 -25v-1751l-23 -29h-469q-12 0 -12 17v135z" />
<glyph unicode="^" horiz-adv-x="907" d="M106 1151l322 332h53l320 -334l-4 -10h-166l-178 121l-177 -121h-163z" />
<glyph unicode="_" horiz-adv-x="1153" d="M10 -27l29 27h1091q12 0 13 -14v-140h-1133v127z" />
<glyph unicode="`" horiz-adv-x="618" d="M106 1294l123 146l64 -17l219 -323l-76 -76z" />
<glyph unicode="a" horiz-adv-x="942" d="M74 253.5q0 108.5 44 172t115 100.5q125 63 367 68v145q0 41 -38 75t-118 34q-76 0 -112 -33l-41 -133l-215 63q47 170 231 230q66 20 148 20q160 0 244.5 -79.5t84.5 -208.5v-525q0 -43 29 -43q14 0 43 15l45 -109q-63 -53 -141 -53q-117 0 -148 92q-90 -94 -229 -94 t-224 77.5t-85 186zM268 283.5q0 -50.5 15.5 -76t38 -40.5t47 -20.5t55.5 -5.5t62.5 13.5t54.5 31.5q43 33 59 82v176q-135 0 -198.5 -21.5t-98.5 -55t-35 -84z" />
<glyph unicode="b" horiz-adv-x="1003" d="M4 1458l260 39l62 -65v-492q86 55 188 55t176 -34.5t127 -98.5q113 -135 113 -356q0 -279 -152 -412q-117 -102 -286 -102q-113 0 -197 47q-98 -49 -107 -51l-47 28v1327l-118 -8zM326 199q16 -20 62 -37t91 -17t88 15.5t80 56.5q88 90 88 277q0 176 -76 266 q-66 80 -167 80q-49 0 -95.5 -19.5t-70.5 -48.5v-573z" />
<glyph unicode="c" horiz-adv-x="884" d="M74 477q0 268 143 408q115 111 297 110q133 0 231 -69q80 -55 107 -117l-203 -96l-65 118q-41 10 -68 11q-248 0 -248 -361q0 -154 75 -245t198 -91q57 0 120.5 21.5t104.5 62.5l45 -143q-123 -94 -299 -94q-184 0 -303 119q-135 130 -135 366z" />
<glyph unicode="d" horiz-adv-x="1028" d="M74 481q0 279 151 412q117 102 287 102q86 0 164 -32v380l-117 -8l-18 123l256 43l63 -69v-1250q0 -43 29 -43q14 0 43 15l45 -109q-63 -53 -153.5 -53t-125.5 67q-96 -68 -203.5 -67.5t-181 35t-127.5 98.5q-112 135 -112 356zM268 494q0 -176 76 -267q66 -80 168 -80 t164 66v578q-18 18 -62.5 34.5t-89.5 16.5t-88 -15.5t-80 -56.5q-88 -90 -88 -276z" />
<glyph unicode="e" horiz-adv-x="909" d="M72 486q0 124 36.5 219.5t98.5 158.5q123 131 307 131q135 0 227 -71q94 -76 95 -199q0 -63 -21.5 -123.5t-83.5 -109.5q-139 -111 -455 -115q33 -162 166 -213q47 -18 102.5 -18.5t94.5 9t68 21.5q55 27 77 49l45 -143q-23 -23 -75 -45q-112 -46 -222 -46q-91 0 -180 32 q-178 63 -246 247q-34 92 -34 216zM266 528q150 0 223.5 23.5t112.5 61.5t39 95.5t-30.5 94.5t-89 37t-98.5 -18.5t-73 -55.5q-72 -84 -84 -238z" />
<glyph unicode="f" horiz-adv-x="690" d="M35 975l14 20h154v187q0 156 84 239q74 74 196 74q141 0 262 -86q25 -16 31 -23l-145 -169l-131 120q-12 4 -29 4q-82 0 -82 -135v-211h232q10 0 10 -12v-141h-242v-697l234 -34v-111h-512l-25 111l117 24v707h-140z" />
<glyph unicode="g" horiz-adv-x="999" d="M37 -258q0 193 170 276q-49 41 -49 130.5t80 168.5q-158 104 -158 301q0 164 113 271q109 106 265 106t267 -90l203 103l43 -7l20 -170l-184 -22q49 -90 49 -185.5t-34 -163t-89 -112.5q-109 -90 -266 -90q-51 0 -90 8l-51 -80l8 -34q20 -4 87.5 -13.5t156 -30t151 -52 t98.5 -68.5q61 -68 61.5 -170.5t-36.5 -172t-96 -116.5q-121 -92 -295 -92q-184 0 -299 78q-125 84 -125 227zM217 -229q0 -68 76 -113q70 -41 180 -41q109 0 182 47q78 47 78 111.5t-56 90t-157.5 47t-157.5 38.5q-145 -59 -145 -180zM274 644q0 -75 16.5 -116t43.5 -65 q51 -51 134 -51t138.5 55t55.5 160q0 104 -58.5 159.5t-136.5 55.5h-8q-84 -4 -134.5 -63.5t-50.5 -134.5z" />
<glyph unicode="h" horiz-adv-x="1067" d="M37 1458l256 43l63 -69v-510q102 74 242 73q213 0 279 -155q25 -53 24 -131v-566l123 -32v-111h-408l-24 111l125 28v539q0 92 -43 126t-91 34t-80 -8.5t-61 -20.5q-57 -25 -86 -53v-613l121 -32v-111h-407l-25 111l127 28v1204l-117 -8z" />
<glyph unicode="i" horiz-adv-x="548" d="M59 950l252 45l66 -65v-787l121 -32v-111h-410l-22 111l127 28v697l-113 -9zM127 1364q0 53 37 90t90 37t90 -39t37 -90t-37 -88t-90 -37t-90 37t-37 90z" />
<glyph unicode="j" horiz-adv-x="497" d="M-76 -504l78 150q14 -10 40 -28.5t60 -18.5q72 0 72 125v1112l-108 -9l-19 123l248 45l63 -65v-1184q0 -162 -66.5 -232.5t-178.5 -70.5q-105 0 -189 53zM106 1364q0 53 37 90t90 37t90 -39t37 -90t-36.5 -88t-91 -37t-90.5 37t-36 90z" />
<glyph unicode="k" horiz-adv-x="993" d="M37 1458l256 43l63 -69v-891l314 325h-101l-16 129h326l49 -94l-318 -307l236 -455l108 -24v-115h-256l-233 453l-109 -105v-213l121 -24v-111h-407l-25 111l127 28v1204l-117 -8z" />
<glyph unicode="l" horiz-adv-x="532" d="M35 1458l256 43l65 -69v-1289l129 -32v-111h-417l-25 111l129 28v1204l-117 -8z" />
<glyph unicode="m" horiz-adv-x="1632" d="M59 950q27 4 62 11.5t69.5 13.5t67.5 11t53 9l60 -75q98 76 256.5 75.5t234.5 -98.5q133 98 299 98q213 0 283 -155q25 -53 24 -131v-566l121 -32v-111h-409l-23 111l127 28v539q0 86 -51 127q-43 33 -108.5 33t-122 -25t-84.5 -49v-21l2 -59v-541l122 -32v-111h-407 l-25 111l125 28v539q0 92 -43 126t-106.5 34t-123 -27t-85.5 -53v-615l119 -32v-111h-408l-25 111l130 28v697l-113 -9z" />
<glyph unicode="n" horiz-adv-x="1085" d="M59 950q27 4 62 11.5t69.5 13.5t67.5 11t53 9l60 -75q98 76 245 75q213 0 281 -155q23 -53 23 -131v-564l122 -34v-111h-407l-25 111l125 28v539q0 92 -43 126t-106.5 34t-123 -27t-85.5 -53v-615l119 -32v-111h-408l-25 111l130 28v697l-113 -9z" />
<glyph unicode="o" horiz-adv-x="1013" d="M74 502q0 119 34.5 211t96.5 155q119 127 303 127q188 0 311 -135t123 -362q0 -238 -131 -375q-121 -131 -303 -131q-190 0 -311 139q-123 138 -123 371zM268 480q0 -165 65.5 -250t172 -85t174.5 83t68 253t-65 265.5t-175 95.5q-117 0 -180 -101q-60 -96 -60 -261z" />
<glyph unicode="p" horiz-adv-x="1034" d="M39 952l256 43l55 -59q92 59 194.5 59t176.5 -34.5t127 -98.5q113 -135 113 -356q0 -279 -152 -412q-117 -102 -287 -102q-94 0 -164 31v-431l250 -45v-108h-536l-25 108l127 31v1260l-117 -9zM358 197q18 -20 62.5 -36t89.5 -16t88 15.5t82 56.5q86 90 86 277 q0 176 -74 266q-68 80 -168 80t-166 -66v-577z" />
<glyph unicode="q" horiz-adv-x="1001" d="M74 481q0 279 151 412q117 102 287 102q102 0 184 -41l117 43l47 -39v-1331l113 -39v-149h-527l-22 129l252 49v428q-82 -53 -185.5 -53t-177 34.5t-127.5 98.5q-112 135 -112 356zM268 494q0 -176 76 -267q66 -80 168 -80t164 66v578q-18 18 -62.5 34.5t-89.5 16.5 t-88 -15.5t-80 -56.5q-88 -90 -88 -276z" />
<glyph unicode="r" horiz-adv-x="829" d="M59 950q115 18 242 43l64 -94q82 94 213 94q90 0 152.5 -45t92.5 -110l-202 -103l-64 99q-70 0 -125 -60q-57 -59 -57 -158v-442q0 -8 35 -14l231 -49v-111h-553l-25 111l127 28v690h-112z" />
<glyph unicode="s" horiz-adv-x="827" d="M49 207l211 80l49 -119q47 -20 87 -20.5t64.5 6t45.5 18.5q47 31 47 90q0 76 -93 116t-160 72.5t-112 69.5q-92 78 -92 205q0 125 101 201q94 70 225 69q66 0 121 -18.5t96 -46.5q78 -53 121 -137l-209 -80l-47 104q-41 20 -88 20.5t-86 -27.5t-39 -81t51 -87t141 -70.5 t138.5 -69.5t74.5 -70q51 -68 51.5 -150.5t-30.5 -136t-80 -88.5q-96 -66 -234 -65q-115 0 -223 63q-100 62 -131 152z" />
<glyph unicode="t" horiz-adv-x="665" d="M8 975l15 20h182v342l164 39l10 -30v-351h213q10 0 10 -12v-141h-223v-588q0 -66 19.5 -85t49 -19t50 6t39.5 16q39 16 61 35q4 -14 43 -135q-29 -27 -84 -53.5t-143 -26.5t-148.5 53t-60.5 174v623h-168z" />
<glyph unicode="u" horiz-adv-x="1044" d="M25 950l254 45l63 -67v-555q0 -193 113 -217q31 -8 58.5 -8.5t55 7t54.5 21.5q59 33 77 80v575h-106l-19 119l250 47l60 -69v-723q0 -68 37 -68l36 4l29 -92q-57 -57 -133 -57q-106 0 -139 92q-96 -92 -230 -92q-225 0 -301 184q-27 63 -26 154v501h-113z" />
<glyph unicode="v" horiz-adv-x="956" d="M0 977l248 18l260 -755l252 620h-111l-14 117l248 18l65 -77l-381 -928h-161l-310 870h-80z" />
<glyph unicode="w" horiz-adv-x="1441" d="M10 979l273 20l159 -784l193 758h223l209 -760l158 639h-92l-15 127l228 18l45 -71l-224 -932h-241l-195 731l-188 -731h-244l-184 858h-90z" />
<glyph unicode="x" horiz-adv-x="950" d="M57 129h86l213 367l-215 364h-84v135h230l217 -360l196 360h185v-129h-78l-219 -372l217 -361h88v-133h-240l-207 346l-198 -346h-182z" />
<glyph unicode="y" horiz-adv-x="983" d="M2 979l254 16l276 -829l259 686h-107l-14 125l248 18l53 -69q-184 -522 -329.5 -896t-169 -422t-54.5 -87q-72 -84 -185 -84q-90 0 -182 82l76 141q57 -70 121 -70q66 0 112 123q14 35 27 66l45 121l-332 952h-82z" />
<glyph unicode="z" horiz-adv-x="866" d="M88 0v158l469 682q-160 4 -321 4l-29 -160h-119v311h690v-159l-471 -682h326l29 168h116v-322h-690z" />
<glyph unicode="{" horiz-adv-x="690" d="M14 477v170q98 0 163 57.5t65 167.5l-2 78l-2 92q0 205 53 293q66 111 252 111q53 0 101 -9.5t50 -10.5t6 -1l-61 -196l-145 49q-63 -35 -64 -201l2 -205q0 -297 -215 -313q215 -8 215 -311l-2 -180q0 -143 29 -197q12 -23 35 -33l145 49l61 -196q-121 -23 -157 -23 q-182 0 -254 127q-51 90 -51 283l4 198q0 141 -142 187q-41 14 -86 14z" />
<glyph unicode="|" horiz-adv-x="505" d="M160 -438v1859h186v-1859h-186z" />
<glyph unicode="}" horiz-adv-x="690" d="M-10 -309l61 196l146 -49q63 29 63 230l-2 180q0 305 217 317q-217 0 -217 307l2 205q0 166 -63 201l-146 -49l-61 196q123 20 190.5 20.5t127 -28t91.5 -82.5q53 -86 54 -293l-2 -92l-2 -78q0 -111 64.5 -168t162.5 -57v-170q-92 0 -160 -51q-68 -53 -67 -150l4 -198 q0 -193 -52 -283q-72 -127 -254 -127q-43 0 -83.5 8.5t-73.5 14.5z" />
<glyph unicode="~" horiz-adv-x="839" d="M51 1186l2 26q35 74 76 107q80 63 164 63q70 0 158 -47l63 -30q29 -14 53 -15l113 101l121 -140q-109 -121 -213 -121q-55 0 -116.5 29t-96.5 42t-80 13t-77 -31.5t-46 -68.5z" />
<glyph unicode="&#xa1;" horiz-adv-x="520" d="M121 -387l65 901h142l75 -850l-43 -78zM137 887q0 51 35 86t85 35t87 -36t37 -85t-37 -85t-87 -36t-85 35t-35 86z" />
<glyph unicode="&#xa2;" horiz-adv-x="894" d="M63 477q0 233 105 367q92 115 242 141v420h184v-420q96 -18 168 -80q47 -39 80 -96l-203 -96l-66 118q-41 10 -67 11q-248 0 -248 -361q0 -154 75 -245t197 -91q57 0 121 21.5t105 62.5l45 -143q-90 -68 -207 -86v-430h-184v430q-150 31 -242 145q-105 127 -105 332z" />
<glyph unicode="&#xa3;" horiz-adv-x="1079" d="M61 42q0 32 21.5 78t64.5 83q82 82 114 213t40 276h-182v135l16 19h172l-4 192q0 289 205 355q59 20 123.5 20t115 -12t91.5 -29q66 -29 114 -65l-145 -187l-164 140q-96 -4 -125 -82q-18 -49 -18 -226v-106h286q14 0 15 -17v-137h-307q-14 -276 -82 -413q113 -8 315 -82 q39 -14 61 -15l156 105l80 -217q-72 -78 -231 -78q-100 0 -197.5 31.5t-145 46t-102.5 14.5t-89 -28.5t-44 -61.5h-149q-2 4 -3 10q-2 6 -2 38z" />
<glyph unicode="&#xa4;" horiz-adv-x="1232" d="M104 317l138 138q-78 113 -78 254q0 143 82 260l-142 143l142 145l153 -153q98 55 216 55t216 -57l156 155l143 -145l-147 -145q82 -117 82 -258q0 -139 -78 -252l143 -140l-143 -145l-149 147q-102 -59 -222 -59t-223 57l-147 -145zM358 709q0 -113 72 -186.5t184 -73.5 q113 0 184.5 73.5t71.5 186.5t-71.5 186.5t-184.5 73.5t-184.5 -73.5t-71.5 -186.5z" />
<glyph unicode="&#xa5;" horiz-adv-x="1249" d="M51 1266v149h424l14 -129l-124 -26l284 -451l281 453l-121 22v131h389v-149l-78 -21l-385 -612h223v-158h-225v-43h225v-158h-225v-104l234 -41l-17 -129h-631l-18 129l227 41v104h-243v158h243v43h-243v158h229l-381 614z" />
<glyph unicode="&#xa6;" horiz-adv-x="528" d="M166 -381v778h196v-778h-196zM166 635v778h196v-778h-196z" />
<glyph unicode="&#xa7;" horiz-adv-x="1030" d="M98 -254l17 346h139l29 -231q98 -29 165.5 -29t110.5 9t76 32q76 47 76 122t-44 118t-112 78.5t-144.5 69.5t-144.5 79q-156 100 -155.5 244.5t112.5 246.5q-117 98 -117 240q0 147 119 244q123 100 305 100q176 0 357 -61l26 -353h-141l-88 232q-57 20 -150.5 20 t-154 -45t-60.5 -104.5t32 -96t80 -66.5t104.5 -52.5t123 -55t124 -72.5t91.5 -81q66 -80 66 -197.5t-111 -228.5q94 -90 95 -219q0 -178 -142 -279q-125 -86 -321 -86q-113 0 -196 21.5t-167 54.5zM324 622.5q0 -63.5 61 -106.5t131 -74q117 -55 162 -80q47 63 47 110.5 t-31.5 83.5t-82 65.5t-113 57.5t-123.5 58q-51 -51 -51 -114.5z" />
<glyph unicode="&#xa8;" horiz-adv-x="790" d="M106 1246q0 48 34 85t84 37t86 -37t36 -86t-37 -84t-85 -35t-83 36t-35 84zM442 1247q0 47 36 84t86 37t85 -37t35 -85t-36 -84t-84 -36t-85 37t-37 84z" />
<glyph unicode="&#xa9;" horiz-adv-x="1466" d="M66 765q0 138 52 260t142 213t212 143.5t260 52.5t260 -52.5t213 -143.5t143.5 -213t52.5 -260t-52.5 -260t-143.5 -212t-213 -142.5t-260 -52.5t-260 52.5t-212 142.5t-142 212t-52 260zM246 766q0 -102 38 -190.5t105 -153.5q141 -143 344 -143t345.5 142t142.5 345 t-142.5 345t-345.5 142t-345 -142t-142 -345zM375 752q0 182 112 290q106 104 273 105q57 0 94 -4l53 -10l19 -248h-97l-28 104l-37 2q-104 0 -168 -57t-64 -166t61.5 -173.5t153 -64.5t164.5 45l54 -133q-98 -63 -192.5 -63t-164 26.5t-121.5 73.5q-112 105 -112 273z" />
<glyph unicode="&#xaa;" horiz-adv-x="700" d="M78 1019.5q0 67.5 27.5 106.5t72.5 60q76 35 219 35v18q0 47 -23.5 61.5t-45.5 14.5q-31 0 -62 -6l-8 -49l-178 34q18 78 92 123q63 37 150.5 37t137.5 -27.5t72.5 -74.5t26.5 -110.5t4 -138.5t3 -93.5t14 -18.5l26 6l31 -94q-59 -45 -121.5 -45t-93.5 49 q-53 -53 -143.5 -53t-145.5 49t-55 116.5zM242 1038q0 -20 13 -39.5t50 -19.5q70 0 92 51v88q-155 0 -155 -80z" />
<glyph unicode="&#xab;" horiz-adv-x="944" d="M12 694l437 439l110 -111l-330 -330l330 -332l-110 -108zM360 694l394 396l110 -111l-286 -287l286 -289l-110 -108z" />
<glyph unicode="&#xac;" horiz-adv-x="1204" d="M100 778v131l23 23h928l22 -23v-413q0 -14 -16 -15h-144v297h-813z" />
<glyph unicode="&#xad;" horiz-adv-x="825" d="M-57 639v176h938v-176h-938z" />
<glyph unicode="&#xae;" horiz-adv-x="1466" d="M66 765q0 138 52 260t142 213t212 143.5t260 52.5t260 -52.5t213 -143.5t143.5 -213t52.5 -260t-52.5 -260t-143.5 -212t-213 -142.5t-260 -52.5t-260 52.5t-212 142.5t-142 212t-52 260zM246 766q0 -102 38 -190.5t105 -153.5q141 -143 344 -143t345.5 142t142.5 345 t-142.5 345t-345.5 142t-345 -142t-142 -345zM467 1026v119h205q174 0 262 -74q80 -66 80 -178q0 -147 -133 -211l94 -172l63 -12v-103h-180l-117 252q-23 -4 -43 -4h-41v-131l95 -23v-94h-275l-8 99l47 16v506zM657 776h29q178 0 178 116t-170 116h-37v-232z" />
<glyph unicode="&#xaf;" horiz-adv-x="905" d="M117 1257v156h671v-156h-671z" />
<glyph unicode="&#xb0;" horiz-adv-x="624" d="M68 1220.5q0 118.5 63 194.5q66 78 180 78q113 0 181 -78q66 -78 65.5 -195.5t-65 -194.5t-182 -77t-180 77t-62.5 195.5zM229 1221q0 -82 41 -119q14 -14 40 -14.5t41.5 13t25.5 34.5q18 37 18 86q0 78 -43 114q-16 14 -41.5 14.5t-41 -13t-23.5 -33.5q-17 -35 -17 -82z " />
<glyph unicode="&#xb1;" horiz-adv-x="931" d="M129 346v156h674v-156h-674zM129 842v155h258v240h156v-240h260v-155h-260v-264h-156v264h-258z" />
<glyph unicode="&#xb2;" horiz-adv-x="614" d="M72 1286q29 86 96.5 126t123.5 40t92 -11t65 -34q66 -51 65.5 -123t-25 -119t-58.5 -82.5t-69.5 -62.5t-56.5 -45h107l30 69h86l-22 -188h-391l-21 88l72 64q131 121 158.5 170t27.5 79q0 68 -67 68q-23 0 -43 -8l-31 -74z" />
<glyph unicode="&#xb3;" horiz-adv-x="604" d="M72 934l63 108q35 -29 68 -50t78 -21t66.5 21.5t21.5 56.5q0 59 -146 59v98q125 0 125 72q0 16 -14.5 32.5t-34.5 16.5q-53 0 -57 -10l-29 -62l-135 45q59 152 233 152q72 0 115 -31q82 -59 82 -127q0 -106 -100 -129q45 -10 82.5 -40.5t37.5 -87t-20.5 -90.5t-52.5 -56 q-66 -43 -154 -43q-143 0 -229 86z" />
<glyph unicode="&#xb4;" horiz-adv-x="641" d="M106 1124l238 310l66 16l125 -166l-345 -250z" />
<glyph unicode="&#xb5;" horiz-adv-x="1097" d="M55 950l254 45l64 -65v-78l2 -234v-317q18 -154 174 -154q72 0 143 56q23 18 35 43v583h-100l-21 121l250 47l59 -69v-723q0 -43 9.5 -55.5t29.5 -12.5l35 4l29 -92q-57 -57 -147.5 -57t-127.5 88q-88 -88 -219 -88q-88 0 -157 28l6 -30v-551h-189v1392h-110z" />
<glyph unicode="&#x3bc;" horiz-adv-x="1097" d="M55 950l254 45l64 -65v-78l2 -234v-317q18 -154 174 -154q72 0 143 56q23 18 35 43v583h-100l-21 121l250 47l59 -69v-723q0 -43 9.5 -55.5t29.5 -12.5l35 4l29 -92q-57 -57 -147.5 -57t-127.5 88q-88 -88 -219 -88q-88 0 -157 28l6 -30v-551h-189v1392h-110z" />
<glyph unicode="&#xb6;" horiz-adv-x="1196" d="M57 1024q0 154 95 258q123 133 354 133h575v-164h-98v-1251h-174v1251h-92v-979l-2 -67q0 -82 -187 -232l-135 185l139 88v366q-225 10 -350 121t-125 291z" />
<glyph unicode="&#xb7;" horiz-adv-x="485" d="M121 489v328h219l27 -31l-2 -297h-244z" />
<glyph unicode="&#xb8;" horiz-adv-x="831" d="M147 -510l89 176l145 -96q78 0 117 55q14 20 14 58t-37 73t-125 35l-26 2l-35 39l71 199h203l-47 -119q76 -20 132.5 -74.5t56.5 -158t-83 -174t-229 -70.5q-148 0 -246 55z" />
<glyph unicode="&#xb9;" horiz-adv-x="485" d="M70 1399l241 69l23 -32v-478l74 -16v-86h-302l-6 82l78 14v367l-90 -16z" />
<glyph unicode="&#xba;" horiz-adv-x="684" d="M70 1152q0 77 21.5 134t58.5 94q74 76 192 76q121 0 195 -76q78 -82 77 -227q0 -221 -163 -285q-51 -20 -109 -20q-186 0 -252 170q-20 57 -20 134zM233 1146.5q0 -65.5 28 -106.5t81 -41t82 40t29 107.5t-28 112t-82 44.5t-82 -45.5t-28 -111z" />
<glyph unicode="&#xbb;" horiz-adv-x="946" d="M82 403l285 289l-285 287l111 111l393 -400l-393 -395zM387 1022l113 111l436 -443l-436 -438l-111 108l328 330z" />
<glyph unicode="&#xbc;" horiz-adv-x="1343" d="M63 1362l273 78l24 -17v-114q0 -12 -2 -25v-524q0 -18 74 -19v-96h-338v92l92 15v522l-106 -17zM193 4l684 1411h182l-2 -29l-682 -1409l-176 23zM686 221v150l318 420h180v-435h96v-135h-96v-108l86 -13v-100h-422l-8 90l172 25v106h-326zM827 356h185v238z" />
<glyph unicode="&#xbd;" horiz-adv-x="1435" d="M68 1362l272 78l25 -17v-114q0 -12 -3 -25v-524q0 -18 74 -19v-96h-338v92l92 15v522l-106 -17zM197 4l684 1411h182l-2 -29l-682 -1409l-176 23zM776 608q45 92 110.5 139.5t151.5 47.5t135.5 -18.5t79.5 -51.5q63 -63 64 -164q0 -141 -154 -311q-43 -49 -84 -94 l-20 -23h182l43 115h92l-26 -248h-514l-27 100q37 39 93 93.5t110 117.5q127 156 127 264q0 47 -29 63.5t-53 16.5q-27 0 -58 -12l-49 -117z" />
<glyph unicode="&#xbe;" horiz-adv-x="1445" d="M59 1251q45 121 187 168q49 16 105.5 16.5t103.5 -13t82 -38.5q78 -55 77 -159q0 -61 -32.5 -109.5t-92.5 -66.5q66 -18 102 -63.5t36 -108.5q0 -119 -97 -185q-84 -59 -186 -59q-166 0 -262 72l111 114q59 -47 133 -47t112 55q12 18 13 47q0 113 -172 113h-27v119h27 q80 0 108 14q57 29 57 79t-36.5 73.5t-69.5 23.5q-35 0 -76 -16l-47 -100zM305 4l682 1411h184l-2 -29l-682 -1409l-176 23zM784 221v150l318 420h180v-435h96v-135h-96v-108l86 -13v-100h-422l-8 90l172 25v106h-326zM926 356h184v238z" />
<glyph unicode="&#xbf;" horiz-adv-x="800" d="M47 -126q0 128 57.5 212t144.5 148.5t135 116.5t48 130v25l162 2l4 -21q6 -31 6 -88t-25.5 -106t-63.5 -87t-82 -67.5t-81 -64.5q-90 -78 -90 -172q0 -98 86 -140q31 -14 70 -14q84 0 135 19l53 194h125l-35 -323q-66 -23 -136.5 -41.5t-160.5 -18.5q-170 0 -261 84 t-91 212zM385 876.5q0 51.5 35 86t86 34.5t87 -35.5t36 -86t-37 -85t-88 -34.5t-85 34.5t-34 86z" />
<glyph unicode="&#xc0;" horiz-adv-x="1245" d="M-2 127l106 37l414 1251h197l436 -1251l94 -37l-22 -127h-482v121l181 43l-99 307h-438l-94 -307l176 -41v-123h-442zM387 1726l115 168l69 -12l287 -317l-76 -90zM438 643h328l-168 514z" />
<glyph unicode="&#xc1;" horiz-adv-x="1245" d="M-2 127l106 37l414 1251h197l436 -1251l94 -37l-22 -127h-482v121l181 43l-99 303h-438l-94 -303l176 -41v-123h-442zM387 1597l293 304l68 8l118 -187l-399 -229zM438 643h328l-168 514z" />
<glyph unicode="&#xc2;" horiz-adv-x="1245" d="M-2 127l106 37l414 1251h197l436 -1251l94 -37l-22 -127h-482v121l181 43l-99 303h-438l-94 -303l176 -41v-123h-442zM274 1499l322 332h53l320 -334l-4 -10h-166l-178 121l-177 -121h-163zM438 643h328l-168 514z" />
<glyph unicode="&#xc3;" horiz-adv-x="1245" d="M-2 127l106 37l414 1251h197l436 -1251l94 -37l-22 -127h-482v121l181 43l-99 303h-438l-94 -303l176 -41v-123h-442zM274 1559v34q45 100 148 144q45 18 113.5 18t127 -32.5t105.5 -67.5l18 -13l125 115l121 -137q-113 -125 -205 -125q-49 0 -83.5 15.5t-66.5 34 t-64.5 33.5t-87 15t-87 -34.5t-49.5 -69.5zM438 643h328l-168 514z" />
<glyph unicode="&#xc4;" horiz-adv-x="1245" d="M-2 127l106 37l414 1251h197l436 -1251l94 -37l-22 -127h-482v121l181 43l-99 303h-438l-94 -303l176 -41v-123h-442zM311 1788q0 53 37 92t91.5 39t92 -39t37.5 -93t-40 -92t-91 -38t-89 39t-38 92zM438 643h328l-168 514zM674 1789q0 52 39 91t93 39t92 -39t38 -92 t-39 -92t-91 -39t-92 40t-40 92z" />
<glyph unicode="&#xc5;" horiz-adv-x="1236" d="M-6 127l106 37l394 1192q-86 59 -86 170q0 86 59 145t145 60q86 0 146.5 -60.5t60.5 -157t-88 -157.5l416 -1192l94 -37l-22 -127h-482v121l181 43l-99 303h-438l-94 -303l176 -41v-123h-443zM434 643h328l-168 514zM535 1526q0 -37 21.5 -57.5t57 -20.5t57 20.5 t21.5 57.5t-21.5 57.5t-57 20.5t-57 -20.5t-21.5 -57.5z" />
<glyph unicode="&#xc6;" horiz-adv-x="1609" d="M-25 127l107 37l524 1251h873l41 -385h-129l-78 209h-381v-430h323v-176h-323v-457h401l72 207h129l-41 -383h-868l-21 145l125 27v356h-319l-146 -364l180 -41v-123h-442zM481 705h248v546l-29 2z" />
<glyph unicode="&#xc7;" horiz-adv-x="1193" d="M72 692q0 340 207 541q193 182 485 182q131 0 303 -39l39 -372h-139l-80 221q-39 14 -134.5 14t-185.5 -43t-153 -115q-127 -147 -127 -368q0 -236 141 -389q143 -156 381 -156q88 0 161.5 26.5t106.5 51.5l60 -162q-113 -80 -320 -90l-29 -74q72 -18 124.5 -69.5 t52.5 -148.5t-78 -163.5t-213 -66.5q-100 0 -219 49l-13 4l84 164l136 -88q72 0 108 51q14 18 14 53t-33.5 68.5t-117.5 33.5l-25 3l-33 34l58 160q-238 43 -391 217q-170 192 -170 471z" />
<glyph unicode="&#xc8;" horiz-adv-x="1103" d="M98 145l125 27v1079l-123 11v153h873l41 -385h-129l-78 209h-381v-430h324v-176h-324v-457h401l72 207h129l-41 -383h-868zM301 1726l117 168l69 -12l285 -317l-74 -90z" />
<glyph unicode="&#xc9;" horiz-adv-x="1103" d="M98 145l125 27v1079l-123 11v153h873l41 -385h-129l-78 209h-381v-430h324v-176h-324v-457h401l72 207h129l-41 -383h-868zM387 1597l295 304l70 8l116 -187l-399 -229z" />
<glyph unicode="&#xca;" horiz-adv-x="1103" d="M98 145l125 27v1079l-123 11v153h873l41 -385h-129l-78 209h-381v-430h324v-176h-324v-457h401l72 207h129l-41 -383h-868zM207 1499l321 332h54l319 -334l-4 -10h-166l-178 121l-176 -121h-164z" />
<glyph unicode="&#xcb;" horiz-adv-x="1103" d="M98 145l125 27v1079l-123 11v153h873l41 -385h-129l-78 209h-381v-430h324v-176h-324v-457h401l72 207h129l-41 -383h-868zM258 1810q0 53 37 92.5t91 39.5t92 -39t38 -93.5t-40 -92.5t-91 -38t-89 39t-38 92zM621 1811.5q0 52.5 38.5 91.5t93 39t92.5 -39t38 -93 q0 -53 -39 -92t-91.5 -39t-92 40t-39.5 92.5z" />
<glyph unicode="&#xcc;" horiz-adv-x="655" d="M78 147l147 23v1079l-129 11v155h447l20 -153l-133 -21v-1075l133 -16v-150h-448zM78 1726l117 168l65 -12l287 -317l-74 -90z" />
<glyph unicode="&#xcd;" horiz-adv-x="653" d="M94 147l129 23v1079l-129 11v155h447l20 -153l-133 -21v-1075l133 -16v-150h-448zM96 1597l293 304l70 8l116 -187l-399 -229z" />
<glyph unicode="&#xce;" horiz-adv-x="653" d="M-20 1499l321 332h53l320 -334l-4 -10h-166l-178 121l-176 -121h-164zM94 147l129 23v1079l-129 11v155h447l20 -153l-133 -21v-1075l133 -16v-150h-448z" />
<glyph unicode="&#xcf;" horiz-adv-x="653" d="M43 1634q0 53 37 91t88 38t91 -37.5t40 -91.5q0 -53 -40 -91t-91 -38t-88 38t-37 91zM94 147l129 23v1079l-129 11v155h447l20 -153l-133 -21v-1075l133 -16v-150h-448zM371 1633.5q0 54.5 39 92t92 37.5t89 -38.5t36 -91t-37 -90.5t-89 -38t-91 37t-39 91.5z" />
<glyph unicode="&#xd0;" horiz-adv-x="1294" d="M76 637v139l20 23h127v452l-123 13v151h387q334 0 531 -178q203 -182 203 -520t-195 -529q-193 -188 -530 -188h-377l-21 145l125 29v463h-147zM426 176h49q264 0 399 148q131 139 132 401q0 129 -42 227.5t-120 161.5q-152 129 -418 129v-444h340q14 0 14 -17v-145h-354 v-461z" />
<glyph unicode="&#xd1;" horiz-adv-x="1425" d="M96 145l129 27v1075l-123 13v155h428l517 -1218v1050l-127 17v151h403l27 -153l-131 -25v-1237h-240l-582 1223v-893l2 -146q0 -12 2 -18l117 -21v-145h-397zM342 1559v34q45 100 150 144q43 18 111.5 18t126.5 -32.5t106 -67.5l18 -13l125 115l121 -137 q-113 -125 -205 -125q-49 0 -84 15.5t-66.5 34t-64.5 33.5t-87 15t-87 -34.5t-49 -69.5z" />
<glyph unicode="&#xd2;" d="M88 705q0 303 143 499q156 213 435 213t436 -213q145 -199 145 -499q0 -301 -145 -500q-158 -213 -436 -213q-279 0 -435 213q-143 197 -143 500zM303 700q0 -221 90 -370q96 -162 273 -162q178 0 276 162q90 147 90 370q0 225 -90 377q-100 164 -276 164t-273 -164 q-90 -152 -90 -377zM428 1726l115 168l67 -12l287 -317l-74 -90z" />
<glyph unicode="&#xd3;" d="M88 705q0 303 143 499q156 213 435 213t436 -213q145 -199 145 -499q0 -301 -145 -500q-158 -213 -436 -213q-279 0 -435 213q-143 197 -143 500zM303 700q0 -221 90 -370q96 -162 273 -162q178 0 276 162q90 147 90 370q0 225 -90 377q-100 164 -276 164t-273 -164 q-90 -152 -90 -377zM449 1597l292 304l70 8l117 -187l-400 -229z" />
<glyph unicode="&#xd4;" d="M88 705q0 303 143 499q156 213 435 213t436 -213q145 -199 145 -499q0 -301 -145 -500q-158 -213 -436 -213q-279 0 -435 213q-143 197 -143 500zM303 700q0 -221 90 -370q96 -162 273 -162q178 0 276 162q90 147 90 370q0 225 -90 377q-100 164 -276 164t-273 -164 q-90 -152 -90 -377zM319 1499l322 332h53l320 -334l-2 -10h-168l-178 121l-177 -121h-167z" />
<glyph unicode="&#xd5;" d="M88 705q0 303 143 499q156 213 435 213t436 -213q145 -199 145 -499q0 -301 -145 -500q-158 -213 -436 -213q-279 0 -435 213q-143 197 -143 500zM297 1559v34q45 100 145 144q45 18 117 18t135.5 -38t110.5 -75l125 115l121 -137q-66 -82 -148 -113q-29 -12 -66.5 -12 t-73.5 15.5t-66.5 34t-63.5 33.5t-86 15q-84 0 -139 -104zM303 700q0 -221 90 -370q96 -162 273 -162q178 0 276 162q90 147 90 370q0 225 -90 377q-100 164 -276 164t-273 -164q-90 -152 -90 -377z" />
<glyph unicode="&#xd6;" d="M88 705q0 303 143 499q156 213 435 213t436 -213q145 -199 145 -499q0 -301 -145 -500q-158 -213 -436 -213q-279 0 -435 213q-143 197 -143 500zM303 700q0 -221 90 -370q96 -162 273 -162q178 0 276 162q90 147 90 370q0 225 -90 377q-100 164 -276 164t-273 -164 q-90 -152 -90 -377zM371 1810q0 53 36.5 92.5t91 39.5t92.5 -39t38 -93.5t-40 -92.5t-91.5 -38t-89 39t-37.5 92zM733 1811.5q0 52.5 39 91.5t93.5 39t92 -39t37.5 -93q0 -53 -38.5 -92t-91 -39t-92.5 40t-40 92.5z" />
<glyph unicode="&#xd7;" horiz-adv-x="978" d="M100 1008l109 108l283 -282l274 274l111 -109l-277 -276l272 -270l-108 -109l-272 270l-277 -276l-109 111l277 276z" />
<glyph unicode="&#xd8;" d="M88 691.5q0 156.5 36 285.5t107 227q156 213 435 213q104 0 194 -33l70 154h200l-2 -39l-100 -217q111 -98 165 -250.5t54 -311.5t-36.5 -288t-108.5 -227q-158 -213 -436 -213q-123 0 -215 39l-64 -140h-192l-7 37l99 213q-100 98 -149.5 246t-49.5 304.5zM303 704.5 q0 -221.5 78 -358.5l401 873q-55 23 -132 22.5t-145.5 -45.5t-111.5 -119q-90 -151 -90 -372.5zM528 199q61 -31 145.5 -31t154 44t114.5 118q90 147 90 372.5t-96 380.5z" />
<glyph unicode="&#xd9;" horiz-adv-x="1306" d="M61 1262v153h474v-151l-142 -19v-768q0 -309 283 -309q188 0 250 164q23 59 22 147v768l-125 19v149h414v-151l-117 -21v-772q0 -238 -137 -365q-121 -115 -313 -114q-236 0 -359 126t-123 353v778zM420 1726l115 168l69 -12l287 -317l-76 -90z" />
<glyph unicode="&#xda;" horiz-adv-x="1306" d="M61 1262v153h474v-151l-142 -19v-768q0 -309 283 -309q188 0 250 164q23 59 22 147v768l-125 19v149h414v-151l-117 -21v-772q0 -238 -137 -365q-121 -115 -313 -114q-236 0 -359 126t-123 353v778zM485 1597l295 304l70 8l115 -187l-398 -229z" />
<glyph unicode="&#xdb;" horiz-adv-x="1306" d="M61 1262v153h474v-151l-142 -19v-768q0 -309 283 -309q188 0 250 164q23 59 22 147v768l-125 19v149h414v-151l-117 -21v-772q0 -238 -137 -365q-121 -115 -313 -114q-236 0 -359 126t-123 353v778zM326 1499l321 332h53l320 -334l-2 -10h-168l-178 121l-176 -121h-168z " />
<glyph unicode="&#xdc;" horiz-adv-x="1325" d="M61 1262v153h474v-151l-142 -19v-768q0 -145 72 -227t219 -82q190 0 258 164q25 59 25 147v768l-125 19v149h413v-151l-116 -21v-772q0 -238 -144 -365q-125 -115 -317 -114q-236 0 -363 126t-127 353v778zM395 1810q0 53 37 92.5t91.5 39.5t92 -39t37.5 -93.5t-40 -92.5 t-91 -38t-89 39t-38 92zM758 1811.5q0 52.5 39 91.5t93 39t92 -39t38 -93q0 -53 -39 -92t-91 -39t-92 40t-40 92.5z" />
<glyph unicode="&#xdd;" horiz-adv-x="1153" d="M8 1262v153h436l15 -135l-137 -25l284 -524l258 526l-125 23v135h400v-153l-88 -21l-369 -737v-334l238 -41l-21 -129h-635l-20 129l235 41v346l-389 727zM412 1597l295 304l69 8l115 -187l-397 -229z" />
<glyph unicode="&#xde;" horiz-adv-x="1075" d="M94 147l129 23v1079l-129 11v155h447l20 -153l-133 -21l4 -76q301 0 451.5 -103.5t150.5 -320.5q0 -219 -162 -331q-143 -98 -403 -99h-41v-145l236 -37v-129h-551zM428 487h33q199 0 278.5 64.5t79.5 173.5q0 141 -94 197.5t-281 56.5h-16v-492z" />
<glyph unicode="&#xdf;" horiz-adv-x="1079" d="M66 0v119l104 20v948q0 203 106 314q96 96 263 96q143 0 243 -80q111 -88 111 -233q0 -94 -34 -154.5t-75 -103.5t-74.5 -76t-33.5 -70q8 -45 92 -88q268 -139 268 -358q0 -160 -114 -260q-102 -90 -244 -90q-119 0 -229 49l110 192q27 -23 53.5 -48t49.5 -40 q72 0 126 53.5t54 147.5q0 88 -90 162q-39 31 -84 58.5t-84 59.5q-90 72 -90 158q0 59 32.5 100.5t72.5 82t73 92t33 133.5q-4 66 -52.5 112.5t-117.5 46.5q-176 0 -177 -217v-1126h-292z" />
<glyph unicode="&#xe0;" horiz-adv-x="942" d="M74 253.5q0 108.5 44 172t115 100.5q125 63 367 68v145q0 41 -38 75t-118 34q-76 0 -112 -33l-41 -133l-215 63q47 170 231 230q66 20 148 20q160 0 244.5 -79.5t84.5 -208.5v-525q0 -43 29 -43q14 0 43 15l45 -109q-63 -53 -141 -53q-117 0 -148 92q-90 -94 -229 -94 t-224 77.5t-85 186zM256 1294l123 146l63 -17l220 -323l-76 -76zM268 283.5q0 -50.5 15.5 -76t38 -40.5t47 -20.5t55.5 -5.5t62.5 13.5t54.5 31.5q43 33 59 82v176q-135 0 -198.5 -21.5t-98.5 -55t-35 -84z" />
<glyph unicode="&#xe1;" horiz-adv-x="942" d="M74 253.5q0 108.5 44 172t115 100.5q125 63 367 68v145q0 41 -38 75t-118 34q-76 0 -112 -33l-41 -133l-215 63q47 170 231 230q66 20 148 20q160 0 244.5 -79.5t84.5 -208.5v-525q0 -43 29 -43q14 0 43 15l45 -109q-63 -53 -141 -53q-117 0 -148 92q-90 -94 -229 -94 t-224 77.5t-85 186zM268 283.5q0 -50.5 15.5 -76t38 -40.5t47 -20.5t55.5 -5.5t62.5 13.5t54.5 31.5q43 33 59 82v176q-135 0 -198.5 -21.5t-98.5 -55t-35 -84zM270 1174l236 305l65 16l123 -164l-340 -248z" />
<glyph unicode="&#xe2;" horiz-adv-x="942" d="M74 253.5q0 108.5 44 172t115 100.5q125 63 367 68v145q0 41 -38 75t-118 34q-76 0 -112 -33l-41 -133l-215 63q47 170 231 230q66 20 148 20q160 0 244.5 -79.5t84.5 -208.5v-525q0 -43 29 -43q14 0 43 15l45 -109q-63 -53 -141 -53q-117 0 -148 92q-90 -94 -229 -94 t-224 77.5t-85 186zM123 1108l272 326h68l274 -328l-12 -23h-160l-137 107l-137 -107h-158zM268 283.5q0 -50.5 15.5 -76t38 -40.5t47 -20.5t55.5 -5.5t62.5 13.5t54.5 31.5q43 33 59 82v176q-135 0 -198.5 -21.5t-98.5 -55t-35 -84z" />
<glyph unicode="&#xe3;" horiz-adv-x="942" d="M74 253.5q0 108.5 44 172t115 100.5q125 63 367 68v145q0 41 -38 75t-118 34q-76 0 -112 -33l-41 -133l-215 63q47 170 231 230q66 20 148 20q160 0 244.5 -79.5t84.5 -208.5v-525q0 -43 29 -43q14 0 43 15l45 -109q-63 -53 -141 -53q-117 0 -148 92q-90 -94 -229 -94 t-224 77.5t-85 186zM143 1198q0 57 54 115q66 72 163 71q74 0 177 -59q25 -14 47 -22l2 -7l94 97l115 -136q-43 -47 -89.5 -79.5t-94.5 -32.5t-77.5 12t-57 25.5t-54.5 26t-57 12.5q-74 0 -113 -93zM268 283.5q0 -50.5 15.5 -76t38 -40.5t47 -20.5t55.5 -5.5t62.5 13.5 t54.5 31.5q43 33 59 82v176q-135 0 -198.5 -21.5t-98.5 -55t-35 -84z" />
<glyph unicode="&#xe4;" horiz-adv-x="942" d="M74 253.5q0 108.5 44 172t115 100.5q125 63 367 68v145q0 41 -38 75t-118 34q-76 0 -112 -33l-41 -133l-215 63q47 170 231 230q66 20 148 20q160 0 244.5 -79.5t84.5 -208.5v-525q0 -43 29 -43q14 0 43 15l45 -109q-63 -53 -141 -53q-117 0 -148 92q-90 -94 -229 -94 t-224 77.5t-85 186zM141 1278q0 53 37 90t90 37t90 -37t37 -90t-36.5 -90t-90.5 -37q-53 0 -90 37t-37 90zM268 283.5q0 -50.5 15.5 -76t38 -40.5t47 -20.5t55.5 -5.5t62.5 13.5t54.5 31.5q43 33 59 82v176q-135 0 -198.5 -21.5t-98.5 -55t-35 -84zM471 1278q0 53 37 90 t90 37t90 -37t37 -90t-37 -90t-90 -37t-90 37t-37 90z" />
<glyph unicode="&#xe5;" horiz-adv-x="942" d="M74 253.5q0 108.5 44 172t115 100.5q125 63 367 68v145q0 41 -38 75t-118 34q-76 0 -112 -33l-41 -133l-215 63q47 170 231 230q66 20 148 20q160 0 244.5 -79.5t84.5 -208.5v-525q0 -43 29 -43q14 0 43 15l45 -109q-63 -53 -141 -53q-117 0 -148 92q-90 -94 -229 -94 t-224 77.5t-85 186zM268 283.5q0 -50.5 15.5 -76t38 -40.5t47 -20.5t55.5 -5.5t62.5 13.5t54.5 31.5q43 33 59 82v176q-135 0 -198.5 -21.5t-98.5 -55t-35 -84zM268 1290q0 82 56.5 138.5t139.5 56.5t139 -56.5t56 -138.5t-56 -138t-139 -56t-139.5 56t-56.5 138zM389 1290 q0 -31 21.5 -52t52.5 -21t53.5 21.5t22.5 51.5q0 31 -22.5 52.5t-53.5 21.5t-52.5 -21.5t-21.5 -52.5z" />
<glyph unicode="&#xe6;" horiz-adv-x="1441" d="M74 252.5q0 107.5 46 171t122 100.5q135 70 358 70v145q0 41 -38 75t-118 34q-76 0 -112 -33l-41 -133l-215 63q47 170 231 230q66 20 148 20q199 0 286 -131q131 131 318 131q137 0 229 -69q96 -72 96 -199q0 -213 -278 -283q-98 -25 -236 -24h-36q-18 0 -39 2 q20 -193 163 -254q51 -23 124 -23t131.5 29t80.5 47l39 -139q-25 -27 -98.5 -58.5t-182 -31.5t-210 46t-166.5 144q-53 -127 -182 -174q-47 -18 -107 -18q-143 0 -228 77.5t-85 185zM268 274q0 -72 54 -106q37 -27 85 -27t79.5 13.5t54.5 31.5q43 33 59 82v176 q-332 0 -332 -170zM795 573h75q135 0 196.5 19.5t92.5 49.5t31 63.5t-6 55t-21.5 39t-43 30t-68.5 12.5t-83 -16.5t-77 -51.5q-82 -78 -96 -201z" />
<glyph unicode="&#xe7;" horiz-adv-x="882" d="M74 477q0 268 143 408q115 111 297 110q133 0 231 -69q80 -55 107 -117l-203 -96l-65 118q-41 10 -68 11q-248 0 -248 -361q0 -154 75 -245t198 -91q57 0 120.5 21.5t104.5 62.5l45 -143q-92 -74 -227 -90l-25 -72q53 -14 96 -52t43 -116t-62.5 -130t-172.5 -52 q-84 0 -180 39l67 135l111 -76q61 0 92 43q10 16 10 39q0 90 -145 90l-25 31l43 123q-156 27 -252 141q-110 129 -110 338z" />
<glyph unicode="&#xe8;" horiz-adv-x="927" d="M72 485q0 -242 133 -370q125 -123 334 -123q141 0 258 67q25 14 32 23l-45 143q-47 -47 -145 -69q-39 -10 -94.5 -10.5t-102.5 18t-82 49.5q-61 57 -84 164q315 4 455 115q104 84 105 233q0 61 -26 112.5t-69 86.5q-92 72 -227 71q-184 0 -307 -131q-135 -141 -135 -379z M266 528q12 154 84 238q66 74 170 74q59 0 90 -37t31 -94.5t-39 -95.5t-96 -56q-90 -29 -240 -29zM317 1378l121 162l66 -16l233 -303l-84 -88z" />
<glyph unicode="&#xe9;" horiz-adv-x="909" d="M72 486q0 124 36.5 219.5t98.5 158.5q123 131 307 131q135 0 227 -71q94 -76 95 -199q0 -63 -21.5 -123.5t-83.5 -109.5q-139 -111 -455 -115q33 -162 166 -213q47 -18 102.5 -18.5t94.5 9t68 21.5q55 27 77 49l45 -143q-23 -23 -75 -45q-205 -84 -402 -14 q-178 63 -246 247q-34 92 -34 216zM266 528q150 0 223.5 23.5t112.5 61.5t39 95.5t-30.5 94.5t-89 37t-98.5 -18.5t-73 -55.5q-72 -84 -84 -238zM319 1174l236 305l66 16l122 -164l-340 -248z" />
<glyph unicode="&#xea;" horiz-adv-x="927" d="M72 486q0 124 36.5 219.5t98.5 158.5q123 131 307 131q135 0 227 -71q94 -76 95 -199q0 -63 -21.5 -123.5t-83.5 -109.5q-139 -111 -455 -115q33 -162 166 -213q47 -18 102.5 -18.5t94.5 9t68 21.5q55 27 77 49l45 -143q-23 -23 -75 -45q-205 -84 -402 -14 q-178 63 -246 247q-34 92 -34 216zM199 1108l272 326h68l274 -328l-12 -23h-160l-137 107l-137 -107h-158zM266 528q150 0 223.5 23.5t112.5 61.5t39 95.5t-30.5 94.5t-89 37t-98.5 -18.5t-73 -55.5q-72 -84 -84 -238z" />
<glyph unicode="&#xeb;" horiz-adv-x="927" d="M72 486q0 124 36.5 219.5t98.5 158.5q123 131 307 131q135 0 227 -71q94 -76 95 -199q0 -63 -21.5 -123.5t-83.5 -109.5q-139 -111 -455 -115q33 -162 166 -213q47 -18 102.5 -18.5t94.5 9t68 21.5q55 27 77 49l45 -143q-23 -23 -75 -45q-205 -84 -402 -14 q-178 63 -246 247q-34 92 -34 216zM217 1282q0 47 32 80t80 33t80.5 -34t32.5 -80t-33.5 -79t-80.5 -33t-79 33t-32 80zM266 528q150 0 223.5 23.5t112.5 61.5t39 95.5t-30.5 94.5t-89 37t-98.5 -18.5t-73 -55.5q-72 -84 -84 -238zM524 1283q0 46 32 79t80 33t81 -34t33 -80 t-34 -79t-81 -33t-79 34t-32 80z" />
<glyph unicode="&#xec;" horiz-adv-x="548" d="M59 950l21 -123l113 9v-697l-127 -28l22 -111h410v111l-121 32v787l-66 65zM59 1333l123 164l66 -16l233 -305l-82 -89z" />
<glyph unicode="&#xed;" horiz-adv-x="548" d="M59 950l252 45l66 -65v-787l121 -32v-111h-410l-22 111l127 28v697l-113 -9zM66 1174l235 305l66 16l120 -164l-337 -246z" />
<glyph unicode="&#xee;" horiz-adv-x="548" d="M-23 1114l256 309h50l256 -307l-11 -16h-137l-135 110l-137 -110h-133zM59 950l252 45l66 -65v-787l121 -32v-111h-410l-22 111l127 28v697l-113 -9z" />
<glyph unicode="&#xef;" horiz-adv-x="548" d="M-2 1282q0 47 31.5 80t80 33t81 -34t32.5 -80t-33.5 -79t-81 -33t-79 33t-31.5 80zM59 950l252 45l66 -65v-787l121 -32v-111h-410l-22 111l127 28v697l-113 -9zM283 1283q0 46 32.5 79t79.5 33t81 -34t34 -80t-35 -79t-81 -33t-78.5 34t-32.5 80z" />
<glyph unicode="&#xf0;" horiz-adv-x="1046" d="M72 438q0 190 108 328q115 139 293 139q170 0 260 -94q-45 156 -155 274l-218 -122l-65 116l166 113q-84 63 -207 121l76 182q154 -59 303 -184l219 149l100 -164l-198 -112q188 -229 207 -529v-41q0 -256 -107 -426q-123 -197 -348 -196q-213 0 -330 143 q-104 125 -104 303zM266 438q0 -125 67.5 -197.5t174.5 -72.5q195 0 244 274q0 141 -80 222q-68 68 -178 67q-115 0 -175 -90q-53 -78 -53 -203z" />
<glyph unicode="&#xf1;" horiz-adv-x="1085" d="M59 950q27 4 62 11.5t69.5 13.5t67.5 11t53 9l60 -75q98 76 245 75q213 0 281 -155q23 -53 23 -131v-564l122 -34v-111h-407l-25 111l125 28v539q0 92 -43 126t-106.5 34t-123 -27t-85.5 -53v-615l119 -32v-111h-408l-25 111l130 28v697l-113 -9zM246 1198q0 57 53 115 q66 72 164 71q74 0 176 -59q25 -14 47 -22l2 -7l94 97l115 -136q-43 -47 -89 -79.5t-94 -32.5t-78 12t-57.5 25.5t-54 26t-57.5 12.5q-74 0 -113 -93z" />
<glyph unicode="&#xf2;" horiz-adv-x="1013" d="M74 502q0 -119 31.5 -212t91.5 -159q121 -139 311 -139q182 0 303 131q131 137 131 375q0 227 -123 362t-311 135q-184 0 -303 -127q-131 -137 -131 -366zM268 485q0 250 135 330q45 27 105 27q111 0 175.5 -95.5t64.5 -265.5t-68 -253t-174.5 -83t-172 85t-65.5 255z M319 1333l123 164l66 -16l233 -307l-82 -89z" />
<glyph unicode="&#xf3;" horiz-adv-x="1013" d="M74 502q0 119 34.5 211t96.5 155q119 127 303 127q188 0 311 -135t123 -362q0 -238 -131 -375q-121 -131 -303 -131q-190 0 -311 139q-123 138 -123 371zM268 480q0 -165 65.5 -250t172 -85t174.5 83t68 253t-65 265.5t-175 95.5q-117 0 -180 -101q-60 -96 -60 -261z M326 1174l235 305l66 16l123 -164l-340 -248z" />
<glyph unicode="&#xf4;" horiz-adv-x="1011" d="M74 502q0 119 34.5 211t96.5 155q119 127 303 127q188 0 311 -135t123 -362q0 -238 -131 -375q-121 -131 -303 -131q-190 0 -311 139q-123 138 -123 371zM223 1114l256 309h49l256 -307l-8 -16h-135l-137 110l-137 -110h-134zM268 480q0 -165 65.5 -250t172 -85t174.5 83 t68 253t-65 265.5t-175 95.5q-117 0 -180 -101q-60 -96 -60 -261z" />
<glyph unicode="&#xf5;" horiz-adv-x="1011" d="M74 502q0 119 34.5 211t96.5 155q119 127 303 127q188 0 311 -135t123 -362q0 -238 -131 -375q-121 -131 -303 -131q-190 0 -311 139q-123 138 -123 371zM193 1196q0 57 53 115q70 74 164 73q72 0 176 -59q27 -14 49 -22l2 -7l94 95l115 -136q-45 -47 -89 -78.5 t-94.5 -31.5t-80 11t-56.5 26q-68 37 -112.5 37t-72.5 -29t-38 -64zM268 480q0 -165 65.5 -250t172 -85t174.5 83t68 253t-65 265.5t-175 95.5q-117 0 -180 -101q-60 -96 -60 -261z" />
<glyph unicode="&#xf6;" horiz-adv-x="1011" d="M74 502q0 119 34.5 211t96.5 155q119 127 303 127q188 0 311 -135t123 -362q0 -238 -131 -375q-121 -131 -303 -131q-190 0 -311 139q-123 138 -123 371zM246 1282q0 47 31.5 80t80 33t81 -34t32.5 -80t-34 -79t-81 -33t-78.5 33t-31.5 80zM268 480q0 -165 65.5 -250 t172 -85t174.5 83t68 253t-65 265.5t-175 95.5q-117 0 -180 -101q-60 -96 -60 -261zM553 1283q0 46 31.5 79t80 33t81 -34t32.5 -80t-33.5 -79t-81 -33t-79 34t-31.5 80z" />
<glyph unicode="&#xf7;" horiz-adv-x="858" d="M92 520v156h674v-156h-674zM328 284q0 46 31.5 78.5t79.5 32.5t81 -33.5t33 -79.5t-34 -79t-81 -33t-78.5 34t-31.5 80zM328 915.5q0 47.5 31.5 80t79.5 32.5t81 -33.5t33 -80t-34 -79t-81 -32.5t-78.5 32.5t-31.5 80z" />
<glyph unicode="&#xf8;" horiz-adv-x="1011" d="M74 498q0 231 131 370q119 127 303 127q61 0 125 -18l108 237h174l-2 -26l-131 -291q158 -139 158 -399q0 -238 -129 -375q-123 -131 -303 -131q-61 0 -127 18l-94 -211h-168l-6 27l120 266q-159 138 -159 406zM268 493.5q0 -147.5 43 -227.5l256 563q-29 8 -59 9 q-119 0 -179.5 -98.5t-60.5 -246zM446 154q25 -8 62 -9q104 0 170.5 83t66.5 240t-47 245z" />
<glyph unicode="&#xf9;" horiz-adv-x="1044" d="M25 950l20 -119h113v-501q0 -170 98 -260q86 -78 229 -78q133 0 230 92q33 -92 139 -92q76 0 133 57l-29 92l-36 -4q-37 0 -37 68v723l-60 69l-250 -47l19 -119h106v-575q-18 -47 -77 -80q-53 -29 -95.5 -29t-74 7.5t-56.5 29.5q-55 53 -55 189v555l-63 67zM236 1333 l120 164l66 -16l235 -307l-84 -89z" />
<glyph unicode="&#xfa;" horiz-adv-x="1044" d="M25 950l254 45l63 -67v-555q0 -193 113 -217q31 -8 58.5 -8.5t55 7t54.5 21.5q59 33 77 80v575h-106l-19 119l250 47l60 -69v-723q0 -68 37 -68l36 4l29 -92q-57 -57 -133 -57q-106 0 -139 92q-96 -92 -230 -92q-225 0 -301 184q-27 63 -26 154v501h-113zM305 1174 l236 305l65 16l123 -164l-340 -248z" />
<glyph unicode="&#xfb;" horiz-adv-x="1044" d="M25 950l254 45l63 -67v-555q0 -193 113 -217q31 -8 58.5 -8.5t55 7t54.5 21.5q59 33 77 80v575h-106l-19 119l250 47l60 -69v-723q0 -68 37 -68l36 4l29 -92q-57 -57 -133 -57q-106 0 -139 92q-96 -92 -230 -92q-225 0 -301 184q-27 63 -26 154v501h-113zM201 1114 l256 309h49l256 -307l-10 -16h-138l-135 110l-137 -110h-133z" />
<glyph unicode="&#xfc;" horiz-adv-x="1044" d="M25 950l254 45l63 -67v-555q0 -193 113 -217q31 -8 58.5 -8.5t55 7t54.5 21.5q59 33 77 80v575h-106l-19 119l250 47l60 -69v-723q0 -68 37 -68l36 4l29 -92q-57 -57 -133 -57q-106 0 -139 92q-96 -92 -230 -92q-225 0 -301 184q-27 63 -26 154v501h-113zM256 1282 q0 47 31.5 80t80 33t81 -34t32.5 -80t-33.5 -79t-81 -33t-79 33t-31.5 80zM563 1283q0 46 32 79t80 33t80.5 -34t32.5 -80t-33.5 -79t-80.5 -33t-79 34t-32 80z" />
<glyph unicode="&#xfd;" horiz-adv-x="983" d="M2 979l254 16l276 -829l259 686h-107l-14 125l248 18l53 -69q-184 -522 -329.5 -896t-169 -422t-54.5 -87q-72 -84 -185 -84q-90 0 -182 82l76 141q57 -70 121 -70q66 0 112 123q14 35 27 66l45 121l-332 952h-82zM283 1174l235 305l66 16l123 -164l-340 -248z" />
<glyph unicode="&#xfe;" horiz-adv-x="1007" d="M8 1466l260 39l62 -65v-500q86 55 188.5 55t176 -34.5t126.5 -98.5q113 -135 113 -356q0 -279 -152 -412q-117 -102 -286 -102q-102 0 -170 33q4 -66 4 -93v-329l245 -49v-113h-530l-14 110l112 27v1774l-116 -9zM330 197q18 -20 63 -36t90 -16t88 15.5t80 56.5 q88 90 88 277q0 172 -75 264q-61 80 -168 80q-49 0 -95.5 -19.5t-70.5 -48.5v-573z" />
<glyph unicode="&#xff;" horiz-adv-x="978" d="M0 979l248 16l276 -829l264 694h-108l-14 117l249 18l52 -69q-164 -463 -284 -769.5t-158 -403.5t-61.5 -145t-53.5 -87q-72 -84 -185 -84q-90 0 -182 82l76 141q57 -70 121 -70q66 0 112 123q14 35 27 66l45 121l-332 960h-76zM215 1282q0 47 32 80t80 33t80.5 -34 t32.5 -80t-33.5 -79t-80.5 -33t-79 33t-32 80zM522 1283q0 46 32 79t80 33t81 -34t33 -80t-34 -79t-81 -33t-79 34t-32 80z" />
<glyph unicode="&#x152;" horiz-adv-x="1787" d="M88 705q0 303 143 499q156 213 435 213l55 -2h936l41 -385h-129l-78 209h-381v-430h324v-176h-324v-457h401l72 207h129l-41 -383h-872q-70 -8 -133 -8q-279 0 -435 213q-143 197 -143 500zM303 700q0 -215 111 -370q113 -162 293 -162q133 0 200 72v923 q-96 78 -199.5 78t-178 -45t-123.5 -119q-103 -152 -103 -377z" />
<glyph unicode="&#x153;" horiz-adv-x="1587" d="M74 498q0 233 131 370q119 127 303 127q219 0 342 -174q63 86 153.5 130t172 44t140 -18.5t101.5 -52.5q96 -76 96 -203q0 -145 -104 -229q-139 -111 -455 -115q33 -162 166 -213q47 -18 102.5 -18.5t94.5 9t67 21.5q55 27 78 49l45 -143q-23 -23 -75 -45 q-109 -45 -215 -45q-248 0 -373 168q-61 -84 -149.5 -126t-185.5 -42t-176 35.5t-136 103.5q-123 138 -123 367zM268 480q0 -165 65.5 -250t172 -85t174.5 83t68 253t-65 265.5t-175 95.5q-117 0 -180 -101q-60 -96 -60 -261zM944 528q150 0 223.5 23.5t112.5 61.5t39 95.5 t-31 94.5t-89 37t-98 -18.5t-73 -55.5q-72 -84 -84 -238z" />
<glyph unicode="&#x178;" horiz-adv-x="1153" d="M284 1660q0 48 34 85t84 37t86 -37t36 -86t-37 -84t-85 -35t-83 36t-35 84zM620 1661q0 47 36 84t86 37t85 -37t35 -85t-36 -84t-84 -36t-85 37t-37 84zM8 1262v153h436l15 -135l-131 -25l278 -512l250 514l-117 23v135h400v-153l-88 -21l-369 -737v-334l238 -41 l-21 -129h-635l-20 129l235 41v346l-389 727z" />
<glyph unicode="&#x2c6;" horiz-adv-x="907" d="M106 1151l322 332h53l320 -334l-4 -10h-166l-178 121l-177 -121h-163z" />
<glyph unicode="&#x2000;" horiz-adv-x="970" />
<glyph unicode="&#x2001;" horiz-adv-x="1941" />
<glyph unicode="&#x2002;" horiz-adv-x="970" />
<glyph unicode="&#x2003;" horiz-adv-x="1941" />
<glyph unicode="&#x2004;" horiz-adv-x="647" />
<glyph unicode="&#x2005;" horiz-adv-x="485" />
<glyph unicode="&#x2006;" horiz-adv-x="323" />
<glyph unicode="&#x2007;" horiz-adv-x="323" />
<glyph unicode="&#x2008;" horiz-adv-x="241" />
<glyph unicode="&#x2009;" horiz-adv-x="387" />
<glyph unicode="&#x200a;" horiz-adv-x="106" />
<glyph unicode="&#x2010;" horiz-adv-x="817" d="M119 500v125l24 28h543q12 0 12 -16v-137h-579z" />
<glyph unicode="&#x2011;" horiz-adv-x="817" d="M119 500v125l24 28h543q12 0 12 -16v-137h-579z" />
<glyph unicode="&#x2012;" horiz-adv-x="817" d="M119 500v125l24 28h543q12 0 12 -16v-137h-579z" />
<glyph unicode="&#x2013;" horiz-adv-x="987" d="M111 616v154h759v-154h-759z" />
<glyph unicode="&#x2014;" horiz-adv-x="1294" d="M111 616v154h1067v-154h-1067z" />
<glyph unicode="&#x2018;" horiz-adv-x="411" d="M78 1196q0 68 26.5 151t73.5 152l113 -33l8 -28l-49 -234l110 -209l-198 -92q-84 135 -84 293z" />
<glyph unicode="&#x2019;" horiz-adv-x="407" d="M61 985v29l103 209l-53 235l215 39q23 -90 22.5 -156.5t-18 -130t-43.5 -116.5q-49 -100 -119 -170z" />
<glyph unicode="&#x201a;" horiz-adv-x="434" d="M74 -199l84 213l-76 230l203 59q10 -16 29.5 -72.5t19.5 -126t-16.5 -128t-43.5 -107.5q-45 -92 -108 -156l-92 64v24z" />
<glyph unicode="&#x201c;" horiz-adv-x="684" d="M90 1083q0 207 121 418l125 -61v-29l-62 -209l54 -276l-215 -43q-2 8 -5.5 31.5t-7.5 52.5q-10 75 -10 116zM365 1084.5q0 66.5 14 130t35 116.5q35 92 90 170l106 -61v-29l-61 -209l53 -235l-215 -39q-22 90 -22 156.5z" />
<glyph unicode="&#x201d;" horiz-adv-x="673" d="M80 924v28l61 209l-53 236l215 39q23 -90 23 -157t-14.5 -130.5t-35.5 -116.5q-35 -92 -90 -170zM354 924v28l62 209l-54 277l216 43q2 -8 5 -32t7 -52q10 -76 10 -117q0 -207 -121 -418z" />
<glyph unicode="&#x201e;" horiz-adv-x="708" d="M68 -223l84 192l-76 230l194 59q8 -18 26.5 -83.5t18.5 -131.5t-15 -115t-40 -94q-45 -82 -108 -145l-84 63v25zM330 -246l104 215l-76 291l203 59q47 -141 47 -272q0 -150 -104 -305q-31 -45 -62 -74l-112 62v24z" />
<glyph unicode="&#x2022;" horiz-adv-x="530" d="M88 784q0 74 51 126.5t125 52.5t126 -52.5t52 -126.5t-52 -125t-126 -51t-125 51t-51 125z" />
<glyph unicode="&#x2026;" horiz-adv-x="1277" d="M944 112.5q0 51.5 35 86t85 34.5t87 -35.5t37 -85t-36 -85t-87 -35.5t-86 34.5t-35 86zM518 112.5q0 51.5 35 86t85 34.5t87 -35.5t37 -85t-36 -85t-87 -35.5t-86 34.5t-35 86zM92 112.5q0 51.5 35 86t85 34.5t87 -35.5t37 -85t-36 -85t-87 -35.5t-86 34.5t-35 86z" />
<glyph unicode="&#x202f;" horiz-adv-x="387" />
<glyph unicode="&#x2039;" horiz-adv-x="714" d="M23 590v53l579 442l10 -4v-186l-366 -281l366 -278v-186l-12 -7z" />
<glyph unicode="&#x203a;" horiz-adv-x="716" d="M102 150v186l367 278l-367 281v186l11 4l579 -442v-53l-577 -447z" />
<glyph unicode="&#x205f;" horiz-adv-x="485" />
<glyph unicode="&#x20ac;" horiz-adv-x="1165" d="M63 455v155h117q-2 20 -2 39v64h-115v155h125q35 283 179.5 417t375.5 134q188 0 306 -35l38 -360h-139l-80 201q-49 18 -126.5 18t-141 -28.5t-104.5 -79.5q-76 -96 -95 -267h521v-155h-529l2 -103h527v-155h-510q27 -141 102 -209q86 -78 244 -78q88 0 154.5 26.5 t99.5 51.5l59 -162q-129 -92 -348 -92q-432 0 -524 463h-136z" />
<glyph unicode="&#x2122;" horiz-adv-x="2936" d="M1280 145l129 27v1075l-102 10v158h422l331 -1147l345 1147h399l20 -158l-106 -16v-1075l112 -23l-8 -143h-397l-16 147l118 27v1053l-362 -1196h-236l-350 1206v-1069l121 -23v-145h-395zM29 1036l43 379h1044l45 -379h-125l-86 203h-256v-1063l238 -41l-19 -135h-630 l-27 135l233 41v1063h-251l-84 -203h-125z" />
<glyph unicode="&#xe000;" horiz-adv-x="995" d="M0 995h995v-995h-995v995z" />
<glyph unicode="&#xfb01;" horiz-adv-x="1239" d="M749 950l252 45l66 -65v-787l121 -32v-111h-410l-22 111l127 28v697l-113 -9zM817 1364q0 53 37 90t90 37t90 -39t37 -90t-37 -88t-90 -37t-90 37t-37 90zM35 975l14 20h154v187q0 156 84 239q74 74 196 74q141 0 262 -86q25 -16 31 -23l-145 -169l-131 120q-12 4 -29 4 q-82 0 -82 -135v-211h232q10 0 10 -12v-141h-242v-697l234 -34v-111h-512l-25 111l117 24v707h-140z" />
<glyph unicode="&#xfb02;" horiz-adv-x="1222" d="M725 1458l256 43l65 -69v-1289l129 -32v-111h-417l-25 111l129 28v1204l-117 -8zM35 975l14 20h154v187q0 156 84 239q74 74 196 74q141 0 262 -86q25 -16 31 -23l-145 -169l-131 120q-12 4 -29 4q-82 0 -82 -135v-211h232q10 0 10 -12v-141h-242v-697l234 -34v-111h-512 l-25 111l117 24v707h-140z" />
<glyph unicode="&#xfb03;" horiz-adv-x="1929" d="M1439 950l252 45l66 -65v-787l121 -32v-111h-410l-22 111l127 28v697l-113 -9zM1507 1364q0 53 37 90t90 37t90 -39t37 -90t-37 -88t-90 -37t-90 37t-37 90zM725 975l14 20h154v187q0 156 84 239q74 74 196 74q141 0 262 -86q25 -16 31 -23l-145 -169l-131 120 q-12 4 -29 4q-82 0 -82 -135v-211h232q10 0 10 -12v-141h-242v-697l234 -34v-111h-512l-25 111l117 24v707h-140zM35 975l14 20h154v187q0 156 84 239q74 74 196 74q141 0 262 -86q25 -16 31 -23l-145 -169l-131 120q-12 4 -29 4q-82 0 -82 -135v-211h232q10 0 10 -12v-141 h-242v-697l234 -34v-111h-512l-25 111l117 24v707h-140z" />
<glyph unicode="&#xfb04;" horiz-adv-x="1912" d="M1415 1458l256 43l65 -69v-1289l129 -32v-111h-417l-25 111l129 28v1204l-117 -8zM725 975l14 20h154v187q0 156 84 239q74 74 196 74q141 0 262 -86q25 -16 31 -23l-145 -169l-131 120q-12 4 -29 4q-82 0 -82 -135v-211h232q10 0 10 -12v-141h-242v-697l234 -34v-111 h-512l-25 111l117 24v707h-140zM35 975l14 20h154v187q0 156 84 239q74 74 196 74q141 0 262 -86q25 -16 31 -23l-145 -169l-131 120q-12 4 -29 4q-82 0 -82 -135v-211h232q10 0 10 -12v-141h-242v-697l234 -34v-111h-512l-25 111l117 24v707h-140z" />
</font>
</defs>
</svg>
