<?xml version="1.0" standalone="no"?>
<!DOCTYPE svg PUBLIC "-//W3C//DTD SVG 1.1//EN" "http://www.w3.org/Graphics/SVG/1.1/DTD/svg11.dtd" >
<svg xmlns="http://www.w3.org/2000/svg">
<metadata>
This is a custom SVG webfont generated by Font Squirrel.
Copyright   : Copyrightc 2008 M FONTS PROJECT
Foundry URL : httpmplusfontssourceforgejp
</metadata>
<defs>
<font id="webfontH0SmxOLj" horiz-adv-x="1269" >
<font-face units-per-em="2048" ascent="1761" descent="-287" />
<missing-glyph horiz-adv-x="737" />
<glyph unicode=" "  horiz-adv-x="737" />
<glyph unicode="&#x09;" horiz-adv-x="737" />
<glyph unicode="&#xa0;" horiz-adv-x="737" />
<glyph unicode="!" horiz-adv-x="606" d="M246 1495h116l-10 -1092h-96zM250 0v240h108v-240h-108z" />
<glyph unicode="&#x22;" horiz-adv-x="757" d="M154 1577h102l-10 -477h-82zM502 1577h102l-10 -477h-82z" />
<glyph unicode="#" horiz-adv-x="1382" d="M113 416v86h260l94 532h-248v86h262l68 375h94l-65 -375h354l67 375h95l-66 -375h242v-86h-256l-94 -532h243v-86h-260l-74 -416h-96l74 416h-354l-74 -416h-96l73 416h-243zM469 502h354l95 532h-355z" />
<glyph unicode="$" horiz-adv-x="1126" d="M123 1120q0 152 102.5 244t284.5 100v205h86v-205q180 -6 362 -59v-94q-182 59 -362 65v-569q408 -92 408 -408q0 -162 -109 -260t-299 -106v-207h-86v205q-201 10 -377 80v98q182 -84 377 -90v612q-387 88 -387 389zM221 1120q0 -227 289 -295v551q-137 -8 -213 -75.5 t-76 -180.5zM596 119q147 10 228 83.5t81 196.5t-74.5 199t-234.5 115v-594z" />
<glyph unicode="%" horiz-adv-x="1638" d="M92 1130.5q0 182.5 87 284t245 101.5q156 0 243 -101.5t87 -284t-87 -285t-243 -102.5q-158 0 -245 102.5t-87 285zM190 1130.5q0 -147.5 61.5 -226.5t172.5 -79t171 79t60 226q0 145 -60 224.5t-171 79.5t-172.5 -78t-61.5 -225.5zM344 0l842 1495h108l-841 -1495h-109z M885 364.5q0 182.5 87 285t242 102.5q158 0 245 -102.5t87 -285t-87 -283.5t-245 -101q-156 0 -242.5 101t-86.5 283.5zM983 365q0 -145 60.5 -224.5t171 -79.5t172 78t61.5 225.5t-61.5 226.5t-172 79t-171 -79t-60.5 -226z" />
<glyph unicode="&#x26;" horiz-adv-x="1439" d="M123 348q0 119 91 230.5t308 255.5l-28 30q-115 125 -161 209t-46 170q0 121 96 197t258 76q168 0 260 -72t92 -199q0 -111 -70.5 -202t-260.5 -220l428 -465v510h96v-614l233 -254h-125l-168 182q-238 -203 -538 -202q-225 0 -345 96t-120 272zM225 352 q0 -137 95.5 -211.5t269.5 -74.5q145 0 255.5 44t213.5 144l-477 514q-193 -125 -275 -222.5t-82 -193.5zM387 1243q0 -70 39 -137.5t168 -210.5l8 -8q180 125 237.5 196.5t57.5 159.5q0 90 -66.5 139.5t-189.5 49.5q-115 0 -184.5 -52.5t-69.5 -136.5z" />
<glyph unicode="'" horiz-adv-x="436" d="M164 1577h108l-10 -477h-88z" />
<glyph unicode="(" horiz-adv-x="747" d="M154 659q0 553 383 918h108q-393 -362 -393 -918q0 -553 393 -915h-108q-383 364 -383 915z" />
<glyph unicode=")" horiz-adv-x="747" d="M102 -256q393 362 394 915q0 555 -394 918h109q383 -365 383 -918q0 -551 -383 -915h-109z" />
<glyph unicode="*" horiz-adv-x="1077" d="M113 1196l26 80l359 -119l-2 379h86l-2 -379l358 119l27 -80l-361 -115l225 -305l-69 -51l-221 307l-222 -307l-67 51l223 305z" />
<glyph unicode="+" horiz-adv-x="1507" d="M174 551v86h537v551h88v-551h536v-86h-536v-551h-88v551h-537z" />
<glyph unicode="," horiz-adv-x="567" d="M133 -225l158 477h125l-185 -477h-98z" />
<glyph unicode="-" horiz-adv-x="948" d="M174 537v86h600v-86h-600z" />
<glyph unicode="." horiz-adv-x="524" d="M205 0v252h117v-252h-117z" />
<glyph unicode="/" horiz-adv-x="999" d="M82 -82l704 1577h101l-703 -1577h-102z" />
<glyph unicode="0" d="M119 748q0 768 526 768t526 -768t-526 -768t-526 768zM221 747.5q0 -679.5 424 -679.5t424 679.5t-424 679.5t-424 -679.5z" />
<glyph unicode="1" d="M246 1022v119l436 354h102v-1495h-102v1376h-4z" />
<glyph unicode="2" d="M188 0v88q455 391 620 607t165 397q0 160 -90 246.5t-258 86.5q-209 0 -406 -118v102q188 106 416 107q209 0 325.5 -111t116.5 -305q0 -199 -160.5 -419t-584.5 -589v-4h758v-88h-902z" />
<glyph unicode="3" d="M195 1407v88h874v-88l-543 -537v-4h86q233 0 355.5 -103.5t122.5 -305.5q0 -233 -133.5 -355t-389.5 -122q-201 0 -356 86v102q166 -100 356 -100q420 0 420 389q0 166 -106.5 246.5t-329.5 80.5h-158v86l541 533v4h-739z" />
<glyph unicode="4" d="M51 369v88l748 1038h100v-1038h272v-88h-272v-369h-100v369h-748zM160 457h639v882h-4l-635 -878v-4z" />
<glyph unicode="5" d="M215 66v100q180 -98 363 -98q207 0 314 104t107 309q0 176 -97 268.5t-284 92.5q-172 0 -292 -99h-95l50 752h759v-88h-665l-39 -561h4q133 82 291 82q225 0 348 -117t123 -330q0 -244 -134 -372.5t-390 -128.5q-195 0 -363 86z" />
<glyph unicode="6" d="M139 655q0 432 153.5 646.5t434.5 214.5q168 0 313 -56v-94q-147 61 -313 61q-217 0 -347 -168.5t-138 -492.5l4 -2q59 106 175 165.5t271 59.5q217 0 348 -134t131 -357q0 -244 -137 -381t-372 -137q-523 -1 -523 675zM254 526q0 -59 15.5 -125.5t54 -147.5t126 -133 t212.5 -52q193 0 300 111.5t107 318.5q0 184 -108.5 295.5t-284.5 111.5q-184 0 -303 -108.5t-119 -270.5z" />
<glyph unicode="7" d="M178 1407v88h942v-88q-365 -600 -614 -1407h-107q252 797 617 1403v4h-838z" />
<glyph unicode="8" d="M119 395q0 145 95 246.5t280 153.5v4q-150 47 -234 143t-84 225q0 158 126 253.5t343 95.5t343 -95.5t126 -253.5q0 -127 -83 -221t-234 -141v-4q375 -98 374 -406q0 -190 -141 -302.5t-385 -112.5t-385 112.5t-141 302.5zM217 399q0 -156 114.5 -244.5t313.5 -88.5 q197 0 310.5 90t113.5 243q0 285 -428 355q-209 -35 -316.5 -126.5t-107.5 -228.5zM276 1161q0 -121 97.5 -207t271.5 -114q174 31 273.5 116.5t99.5 204.5q0 123 -100.5 196t-272.5 73t-270.5 -73t-98.5 -196z" />
<glyph unicode="9" d="M127 1018q0 227 141.5 362.5t366.5 135.5q250 0 386 -163t136 -493q0 -459 -150.5 -669.5t-437.5 -210.5q-178 0 -333 55v94q162 -61 333 -61q223 0 351.5 164.5t132.5 502.5h-4q-127 -229 -445 -229q-217 0 -347 137t-130 375zM229 1018q0 -197 106.5 -312.5 t285.5 -115.5q186 0 303.5 111.5t117.5 287.5q0 39 -7 86t-33.5 112.5t-68.5 117t-120 87t-178 35.5q-182 0 -294 -109.5t-112 -299.5z" />
<glyph unicode=":" horiz-adv-x="688" d="M287 0v252h116v-252h-116zM287 799v252h116v-252h-116z" />
<glyph unicode=";" horiz-adv-x="731" d="M174 -225l158 477h125l-185 -477h-98zM311 799v252h115v-252h-115z" />
<glyph unicode="&#x3c;" horiz-adv-x="1357" d="M143 539v110l1010 492v-97l-940 -448v-4l940 -449v-96z" />
<glyph unicode="=" horiz-adv-x="1548" d="M195 322v84h1161v-84h-1161zM195 782v84h1161v-84h-1161z" />
<glyph unicode="&#x3e;" horiz-adv-x="1357" d="M205 47v96l942 449v4l-942 448v97l1009 -492v-110z" />
<glyph unicode="?" horiz-adv-x="1282" d="M184 1350v98q227 68 461 68q236 0 366 -86.5t130 -235.5q0 -74 -20.5 -133.5t-67.5 -107.5t-79 -72.5t-102 -71.5q-70 -45 -105.5 -72.5t-81.5 -78t-66.5 -112t-20.5 -140.5h-102q0 92 23.5 163.5t75.5 128t90 86t110 76.5q61 41 92 64.5t71.5 64.5t58 89t17.5 110 q0 113 -102.5 175t-296.5 62q-224 1 -451 -75zM492 0v240h108v-240h-108z" />
<glyph unicode="@" horiz-adv-x="1691" d="M92 748q0 332 212 542.5t542 210.5q338 0 547 -208t209 -545q0 -201 -113 -313.5t-301 -112.5q-104 0 -154 49q-43 43 -43 118h-4q-111 -168 -303 -167q-135 0 -213 100q-100 129 -47 342q53 205 167 317.5t263 112.5q104 0 172 -74q37 -39 57 -108h2l45 159h107 l-143 -544q-39 -150 -2 -199q29 -33 96 -33q154 0 241 93.5t87 259.5q0 303 -184.5 488t-485.5 185q-295 0 -482.5 -188.5t-187.5 -485t187.5 -485t482.5 -188.5q201 0 362 90v-88q-162 -82 -362 -82q-330 0 -542 210t-212 544zM520 756q-45 -170 29 -269q55 -74 147 -73 q121 0 202 86t130 266q47 174 -24 268q-49 70 -148 70q-113 0 -202 -92t-134 -256z" />
<glyph unicode="A" horiz-adv-x="1343" d="M72 0l538 1495h123l541 -1495h-111l-166 473h-653l-166 -473h-106zM375 559h594l-295 846h-4z" />
<glyph unicode="B" horiz-adv-x="1210" d="M184 12v1471q164 33 334 33q285 0 405.5 -98.5t120.5 -256.5q0 -129 -81.5 -218t-227.5 -124v-4q184 -31 284.5 -136.5t100.5 -248.5q0 -199 -134 -324.5t-447 -125.5q-181 -1 -355 32zM287 90q125 -23 252 -22q479 0 479 368q0 154 -134 243t-407 89h-190v-678zM287 854 h190q231 0 350 77t119 220q0 276 -428 276q-115 0 -231 -22v-551z" />
<glyph unicode="C" horiz-adv-x="1241" d="M92 748q0 362 163 565t443 203q190 0 361 -62v-94q-178 68 -354 67q-238 0 -373 -180t-135 -499q0 -317 140 -498.5t380 -181.5q176 0 352 69v-96q-170 -61 -358 -61q-279 0 -449 201.5t-170 566.5z" />
<glyph unicode="D" horiz-adv-x="1333" d="M184 12v1471q156 33 334 33q725 0 725 -748q0 -788 -725 -788q-166 -1 -334 32zM287 92q106 -25 231 -24q322 0 473.5 169t151.5 531q0 338 -152.5 498.5t-472.5 160.5q-125 0 -231 -24v-1311z" />
<glyph unicode="E" horiz-adv-x="1193" d="M184 0v1495h846v-88h-743v-553h702v-86h-702v-680h743v-88h-846z" />
<glyph unicode="F" horiz-adv-x="1163" d="M184 0v1495h826v-88h-723v-573h682v-86h-682v-748h-103z" />
<glyph unicode="G" horiz-adv-x="1398" d="M92 748q0 352 191.5 560t511.5 208q188 0 366 -56v-92q-178 59 -358 59q-281 0 -443.5 -182t-162.5 -497q0 -311 157.5 -495.5t419.5 -184.5q190 0 352 61v639h-528v86h627v-784q-213 -90 -457 -90q-299 0 -487.5 207t-188.5 561z" />
<glyph unicode="H" horiz-adv-x="1357" d="M184 0v1495h103v-641h784v641h103v-1495h-103v768h-784v-768h-103z" />
<glyph unicode="I" horiz-adv-x="620" d="M256 0v1495h109v-1495h-109z" />
<glyph unicode="J" horiz-adv-x="1067" d="M92 41v96q178 -70 354 -69q182 0 267.5 104t85.5 340v983h106v-1003q0 -266 -112.5 -389t-346.5 -123q-192 0 -354 61z" />
<glyph unicode="K" horiz-adv-x="1220" d="M184 0v1495h103v-678h4l698 678h131l-745 -717l766 -778h-129l-721 739h-4v-739h-103z" />
<glyph unicode="L" horiz-adv-x="1183" d="M184 0v1495h107v-1405h760v-90h-867z" />
<glyph unicode="M" horiz-adv-x="1665" d="M184 0v1495h117l528 -922h5l528 922h119v-1495h-103v1335h-4l-491 -858h-103l-491 858h-4v-1335h-101z" />
<glyph unicode="N" horiz-adv-x="1398" d="M184 0v1495h119l807 -1339h4v1339h100v-1495h-116l-809 1339h-4v-1339h-101z" />
<glyph unicode="O" horiz-adv-x="1445" d="M92 747.5q0 366.5 167 567.5t464 201t465 -202t168 -566.5t-168 -566t-465 -201.5t-464 200.5t-167 567zM197 747.5q0 -331.5 136 -505.5t390 -174t391 174t137 505.5t-137 505.5t-391 174t-390 -174t-136 -505.5z" />
<glyph unicode="P" horiz-adv-x="1208" d="M184 0v1483q184 33 383 33q272 0 415.5 -116t143.5 -331q0 -227 -144 -348t-415 -121q-139 0 -280 16v-616h-103zM287 705q129 -18 272 -19q225 0 346 97.5t121 277.5t-119 273t-348 93q-137 0 -272 -22v-700z" />
<glyph unicode="Q" horiz-adv-x="1515" d="M92 747.5q0 366.5 167 567.5t464 201t465 -202t168 -566q0 -274 -100.5 -458t-284.5 -257v-4q180 -31 320.5 -119t224.5 -217h-123q-109 152 -266.5 219.5t-403.5 67.5q-297 0 -464 200.5t-167 567zM197 747.5q0 -331.5 136 -505.5t390 -174t391 174t137 505.5 t-137 505.5t-391 174t-390 -174t-136 -505.5z" />
<glyph unicode="R" horiz-adv-x="1249" d="M184 0v1485q166 31 355 31q283 0 425 -103.5t142 -300.5q0 -317 -346 -385v-4q53 -25 96 -86.5t105 -202.5l186 -434h-109l-178 422q-35 82 -58.5 125t-50 76.5t-63.5 45t-78 16.5t-118 5h-205v-690h-103zM287 776h205q266 0 390 82t124 248q0 322 -474 321 q-135 0 -245 -20v-631z" />
<glyph unicode="S" horiz-adv-x="1118" d="M133 1174q0 164 106.5 253t303.5 89q213 0 403 -89v-102q-193 102 -397 102q-135 0 -225.5 -59t-90.5 -194q0 -231 318 -334q236 -78 336 -185.5t100 -275.5q0 -195 -115.5 -297t-332.5 -102t-389 106v104q172 -123 382 -122q172 0 262.5 79.5t90.5 231.5q0 131 -81 217 t-261 145q-410 134 -410 433z" />
<glyph unicode="T" horiz-adv-x="1302" d="M133 1405v90h1038v-90h-469v-1405h-102v1405h-467z" />
<glyph unicode="U" horiz-adv-x="1337" d="M164 502v993h104v-997q0 -428 402 -428q403 0 403 428v997h101v-993q0 -258 -130.5 -390t-374 -132t-374.5 132t-131 390z" />
<glyph unicode="V" horiz-adv-x="1343" d="M72 1495h110l490 -1397h4l489 1397h109l-541 -1495h-123z" />
<glyph unicode="W" horiz-adv-x="1802" d="M102 1495h105l297 -1391h4l326 1391h139l323 -1391h4l297 1391h103l-336 -1495h-137l-324 1391h-4l-324 -1391h-137z" />
<glyph unicode="X" horiz-adv-x="1310" d="M123 0l469 756l-459 739h119l403 -664h4l402 664h117l-459 -739l469 -756h-121l-412 680h-4l-409 -680h-119z" />
<glyph unicode="Y" horiz-adv-x="1310" d="M72 1495h121l462 -754h4l461 754h119l-530 -844v-651h-107v651z" />
<glyph unicode="Z" horiz-adv-x="1255" d="M164 0v88l807 1315v4h-807v88h928v-88l-807 -1315v-4h807v-88h-928z" />
<glyph unicode="[" horiz-adv-x="942" d="M246 -256v1833h512v-82h-416v-1669h416v-82h-512z" />
<glyph unicode="\" horiz-adv-x="999" d="M113 1495h102l703 -1577h-101z" />
<glyph unicode="]" horiz-adv-x="942" d="M184 -174h416v1669h-416v82h512v-1833h-512v82z" />
<glyph unicode="^" horiz-adv-x="1261" d="M92 573l475 922h129l475 -922h-108l-430 854h-2l-430 -854h-109z" />
<glyph unicode="_" horiz-adv-x="1132" d="M0 -174h1133v-82h-1133v82z" />
<glyph unicode="`" horiz-adv-x="507" d="M41 1659h127l248 -485h-92z" />
<glyph unicode="a" horiz-adv-x="1077" d="M113 293q0 164 132 268.5t447 104.5h133v77q0 143 -62.5 199.5t-219.5 56.5q-193 0 -375 -75v94q178 68 375 67q211 0 297 -80.5t86 -281.5v-723h-95l-2 209h-4q-55 -109 -160.5 -169t-240.5 -60q-141 0 -226 85t-85 228zM211 301q0 -109 62.5 -172t166.5 -63 q160 0 272.5 111.5t112.5 287.5v125h-133q-238 0 -359.5 -74t-121.5 -215z" />
<glyph unicode="b" horiz-adv-x="1169" d="M174 0v1495h98v-594h4q127 184 363 184q203 0 316.5 -144t113.5 -409q0 -260 -115.5 -406t-314.5 -146q-238 0 -365 192h-4l-2 -172h-94zM272 373q0 -121 108.5 -216.5t240.5 -95.5q168 0 258 120t90 351q0 471 -348 472q-133 0 -241 -97.5t-108 -214.5v-319z" />
<glyph unicode="c" horiz-adv-x="1015" d="M92 532q0 270 123 411.5t348 141.5q147 0 291 -45v-90q-141 51 -285 51q-375 0 -374.5 -469t395.5 -469q141 0 274 56v-92q-139 -47 -280 -47q-238 0 -365 139t-127 413z" />
<glyph unicode="d" horiz-adv-x="1169" d="M102 532q0 266 113 409.5t317 143.5q233 0 361 -184h4v594h100v-1495h-94l-2 172h-4q-131 -193 -365 -192q-199 0 -314.5 146t-115.5 406zM201 532q0 -231 91 -351t257 -120q131 0 239.5 95.5t108.5 216.5v319q0 119 -106.5 215.5t-241.5 96.5q-348 -1 -348 -472z" />
<glyph unicode="e" horiz-adv-x="1075" d="M92 532q0 297 129 425t332 128q420 0 420 -536q0 -27 -2 -37h-781q6 -453 408 -453q152 0 309 66v-88q-156 -57 -317 -57q-244 0 -371 139t-127 413zM193 592h681q-6 414 -321 414q-342 0 -360 -414z" />
<glyph unicode="f" horiz-adv-x="1046" d="M123 942v82h280v150q0 182 74 262t244 80q90 0 174 -31v-84q-82 33 -162 33q-127 0 -177 -56.5t-50 -199.5v-154h368v-82h-368v-942h-103v942h-280z" />
<glyph unicode="g" horiz-adv-x="1138" d="M102 539q0 291 118 418.5t298 127.5q238 0 359 -190h4l2 170h94v-1014q0 -272 -113.5 -397t-357.5 -125q-160 0 -295 47v92q139 -57 295 -57q197 0 284 102.5t87 333.5v135h-5q-117 -182 -354 -182q-190 0 -303 143.5t-113 395.5zM201 539q0 -219 90 -338t248 -119 q135 0 236.5 100.5t101.5 241.5v231q0 141 -101.5 245t-236.5 104q-338 0 -338 -465z" />
<glyph unicode="h" horiz-adv-x="1144" d="M174 0v1495h98v-623h4q150 213 365 213q186 0 269 -102t83 -348v-635h-96v621q0 225 -64.5 301.5t-211.5 76.5q-117 0 -233 -112.5t-116 -227.5v-659h-98z" />
<glyph unicode="i" horiz-adv-x="614" d="M256 0v1065h102v-1065h-102zM256 1325v211h102v-211h-102z" />
<glyph unicode="j" horiz-adv-x="716" d="M-10 -365q233 0 300.5 61.5t67.5 268.5v1100h103v-1100q0 -250 -92.5 -333t-378.5 -83v86zM358 1325v211h103v-211h-103z" />
<glyph unicode="k" horiz-adv-x="1101" d="M174 0v1495h98v-909h4l586 479h131l-628 -512l634 -553h-129l-594 520h-4v-520h-98z" />
<glyph unicode="l" horiz-adv-x="614" d="M256 0v1536h102v-1536h-102z" />
<glyph unicode="m" horiz-adv-x="1607" d="M164 0v1065h96v-166h4q115 186 293 186q109 0 175.5 -51t98.5 -164h5q109 215 309 215q160 0 234.5 -97t74.5 -312v-676h-98v655q0 193 -53.5 271t-178.5 78q-90 0 -178 -99.5t-88 -212.5v-692h-98v655q0 195 -54.5 272t-177.5 77q-90 0 -178 -99.5t-88 -212.5v-692h-98z " />
<glyph unicode="n" horiz-adv-x="1136" d="M164 0v1065h94l2 -188h4q143 209 367 208q186 0 269 -102t83 -348v-635h-98v625q0 223 -64.5 301t-210.5 78q-115 0 -231.5 -113t-116.5 -225v-666h-98z" />
<glyph unicode="o" horiz-adv-x="1132" d="M92 532.5q0 264.5 125 408.5t350.5 144t349 -144t123.5 -408.5t-123.5 -408.5t-349 -144t-350.5 144t-125 408.5zM193 532.5q0 -231.5 96 -351.5t278 -120q180 0 276.5 120t96.5 351.5t-96 351.5t-277 120q-182 0 -278 -120t-96 -351.5z" />
<glyph unicode="p" horiz-adv-x="1159" d="M164 -451v1516h94l2 -172h4q125 193 365 192q203 0 316.5 -144t113.5 -409q0 -260 -116 -406t-314 -146q-238 0 -363 186h-4v-617h-98zM262 395q0 -137 105.5 -235.5t242.5 -98.5q168 0 258 121t90 350q0 471 -348 472q-139 0 -243.5 -100.5t-104.5 -233.5v-275z" />
<glyph unicode="q" horiz-adv-x="1159" d="M102 532q0 266 113 409.5t317 143.5q240 0 365 -192h4l2 172h94v-1516h-100v617h-4q-121 -186 -361 -186q-199 0 -314.5 146t-115.5 406zM201 532q0 -229 91 -350t257 -121q137 0 242.5 98.5t105.5 235.5v275q0 133 -104.5 233.5t-243.5 100.5q-348 -1 -348 -472z" />
<glyph unicode="r" horiz-adv-x="901" d="M164 0v1065h98v-268h4q61 125 185 196.5t286 71.5h41v-88h-41q-207 0 -339 -130t-132 -341v-506h-102z" />
<glyph unicode="s" horiz-adv-x="1009" d="M133 805q0 129 97.5 204.5t271.5 75.5q168 0 342 -57v-88q-172 63 -336 64q-131 0 -204 -51.5t-73 -139.5q0 -82 57.5 -134t213.5 -85q205 -45 290 -119t85 -205q0 -135 -101.5 -212.5t-284 -77.5t-348.5 75v88q166 -82 342 -82q141 0 217 55.5t76 153.5 q0 82 -60.5 140.5t-228.5 95.5q-190 41 -273 111.5t-83 187.5z" />
<glyph unicode="t" horiz-adv-x="1019" d="M113 942v82h241v389h101v-389h401v-82h-401v-629q0 -156 44 -204t167 -48q88 0 168 31v-86q-82 -27 -183 -26q-168 0 -232.5 70.5t-64.5 256.5v635h-241z" />
<glyph unicode="u" horiz-adv-x="1126" d="M154 395v670h96v-659q0 -199 65.5 -272t200.5 -73q125 0 236.5 105.5t111.5 232.5v666h99v-1065h-95l-2 188h-4q-61 -100 -158.5 -154t-207.5 -54q-176 0 -259 96t-83 319z" />
<glyph unicode="v" horiz-adv-x="1112" d="M82 1065h106l367 -1002h4l367 1002h104l-405 -1065h-138z" />
<glyph unicode="w" horiz-adv-x="1617" d="M102 1065h107l268 -977h4l260 977h138l260 -977h4l268 977h105l-312 -1065h-133l-260 971h-4l-260 -971h-133z" />
<glyph unicode="x" horiz-adv-x="1097" d="M113 0l379 541l-369 524h115l311 -457h4l311 457h113l-369 -524l379 -541h-115l-321 473h-4l-324 -473h-110z" />
<glyph unicode="y" horiz-adv-x="1112" d="M82 1065h104l353 -932h4l385 932h102l-645 -1516h-102l204 467z" />
<glyph unicode="z" horiz-adv-x="1091" d="M164 0v82l645 897v4h-645v82h764v-82l-643 -897v-4h643v-82h-764z" />
<glyph unicode="{" horiz-adv-x="1036" d="M133 618v84h96q78 0 122 69t44 192v317q0 156 62.5 226.5t201.5 70.5h185v-82h-152q-106 0 -153 -47t-47 -188v-302q0 -225 -148 -294v-5q147 -74 148 -297v-301q0 -141 47 -188t153 -47h152v-82h-185q-139 0 -201.5 70.5t-62.5 226.5v317q0 123 -44 191.5t-122 68.5h-96 z" />
<glyph unicode="|" horiz-adv-x="667" d="M287 -451v2110h96v-2110h-96z" />
<glyph unicode="}" horiz-adv-x="1036" d="M195 -174h149q106 0 154.5 47t48.5 188v301q0 223 145 297v5q-145 72 -145 294v302q0 141 -48 188t-155 47h-149v82h184q139 0 200.5 -70.5t61.5 -226.5v-317q0 -123 45 -192t123 -69h96v-84h-96q-78 0 -123 -68.5t-45 -191.5v-317q0 -156 -61.5 -226.5t-200.5 -70.5 h-184v82z" />
<glyph unicode="~" horiz-adv-x="1419" d="M123 582q131 197 334 196q150 0 278 -131q111 -111 228 -110q160 0 270 161l63 -51q-131 -197 -333 -196q-150 0 -279 131q-111 111 -227 110q-158 0 -269 -162z" />
<glyph unicode="&#xa5;" horiz-adv-x="1331" d="M82 1495h121l463 -754h4l460 754h119l-493 -784h397v-76h-434v-225h434v-76h-434v-334h-107v334h-434v76h434v225h-434v76h397z" />
<glyph unicode="&#xad;" horiz-adv-x="948" d="M174 537v86h600v-86h-600z" />
<glyph unicode="&#x2000;" horiz-adv-x="833" />
<glyph unicode="&#x2001;" horiz-adv-x="1669" />
<glyph unicode="&#x2002;" horiz-adv-x="833" />
<glyph unicode="&#x2003;" horiz-adv-x="1669" />
<glyph unicode="&#x2004;" horiz-adv-x="555" />
<glyph unicode="&#x2005;" horiz-adv-x="415" />
<glyph unicode="&#x2006;" horiz-adv-x="276" />
<glyph unicode="&#x2007;" horiz-adv-x="276" />
<glyph unicode="&#x2008;" horiz-adv-x="206" />
<glyph unicode="&#x2009;" horiz-adv-x="333" />
<glyph unicode="&#x200a;" horiz-adv-x="92" />
<glyph unicode="&#x2010;" horiz-adv-x="948" d="M174 537v86h600v-86h-600z" />
<glyph unicode="&#x2011;" horiz-adv-x="948" d="M174 537v86h600v-86h-600z" />
<glyph unicode="&#x2012;" horiz-adv-x="948" d="M174 537v86h600v-86h-600z" />
<glyph unicode="&#x2013;" horiz-adv-x="972" d="M0 551v86h973v-86h-973z" />
<glyph unicode="&#x2014;" horiz-adv-x="1945" d="M0 551v86h1946v-86h-1946z" />
<glyph unicode="&#x2018;" horiz-adv-x="536" d="M102 1100l185 477h98l-158 -477h-125z" />
<glyph unicode="&#x2019;" horiz-adv-x="536" d="M154 1100l157 477h125l-184 -477h-98z" />
<glyph unicode="&#x201c;" horiz-adv-x="862" d="M92 1100l184 477h91l-156 -477h-119zM444 1100l185 477h92l-158 -477h-119z" />
<glyph unicode="&#x201d;" horiz-adv-x="862" d="M143 1100l158 477h117l-185 -477h-90zM496 1100l157 477h119l-184 -477h-92z" />
<glyph unicode="&#x2022;" horiz-adv-x="886" d="M266 594q0 74 52.5 126t126 52t125 -52t51.5 -126t-51.5 -126t-125 -52t-126 52t-52.5 126z" />
<glyph unicode="&#x2026;" horiz-adv-x="2048" d="M203 606v266h114v-266h-114zM885 606v266h114v-266h-114zM1567 606v266h114v-266h-114z" />
<glyph unicode="&#x202f;" horiz-adv-x="333" />
<glyph unicode="&#x205f;" horiz-adv-x="415" />
<glyph unicode="&#x2122;" horiz-adv-x="2967" d="M1487 0v1495h117l528 -922h5l528 922h119v-1495h-103v1335h-4l-491 -858h-103l-491 858h-4v-1335h-101zM133 1405v90h1038v-90h-469v-1405h-102v1405h-467z" />
<glyph unicode="&#xe000;" horiz-adv-x="1065" d="M0 1065h1065v-1065h-1065v1065z" />
<glyph unicode="&#xfb01;" horiz-adv-x="1660" d="M1303 0v1065h102v-1065h-102zM1303 1325v211h102v-211h-102zM123 942v82h280v150q0 182 74 262t244 80q90 0 174 -31v-84q-82 33 -162 33q-127 0 -177 -56.5t-50 -199.5v-154h368v-82h-368v-942h-103v942h-280z" />
<glyph unicode="&#xfb02;" horiz-adv-x="1660" d="M1303 0v1536h102v-1536h-102zM123 942v82h280v150q0 182 74 262t244 80q90 0 174 -31v-84q-82 33 -162 33q-127 0 -177 -56.5t-50 -199.5v-154h368v-82h-368v-942h-103v942h-280z" />
<glyph unicode="&#xfb03;" horiz-adv-x="2707" d="M2349 0v1065h102v-1065h-102zM2349 1325v211h102v-211h-102zM1170 942v82h280v150q0 182 74 262t244 80q90 0 174 -31v-84q-82 33 -162 33q-127 0 -177 -56.5t-50 -199.5v-154h368v-82h-368v-942h-103v942h-280zM123 942v82h280v150q0 182 74 262t244 80q90 0 174 -31 v-84q-82 33 -162 33q-127 0 -177 -56.5t-50 -199.5v-154h368v-82h-368v-942h-103v942h-280z" />
<glyph unicode="&#xfb04;" horiz-adv-x="2707" d="M2349 0v1536h102v-1536h-102zM1170 942v82h280v150q0 182 74 262t244 80q90 0 174 -31v-84q-82 33 -162 33q-127 0 -177 -56.5t-50 -199.5v-154h368v-82h-368v-942h-103v942h-280zM123 942v82h280v150q0 182 74 262t244 80q90 0 174 -31v-84q-82 33 -162 33 q-127 0 -177 -56.5t-50 -199.5v-154h368v-82h-368v-942h-103v942h-280z" />
</font>
</defs>
</svg>
