<?xml version="1.0" standalone="no"?>
<!DOCTYPE svg PUBLIC "-//W3C//DTD SVG 1.1//EN" "http://www.w3.org/Graphics/SVG/1.1/DTD/svg11.dtd" >
<svg xmlns="http://www.w3.org/2000/svg">
<metadata>
This is a custom SVG webfont generated by Font Squirrel.
Copyright   : Copyrightc 2008 M FONTS PROJECT
Foundry URL : httpmplusfontssourceforgejp
</metadata>
<defs>
<font id="webfontaLGdGJrx" horiz-adv-x="1284" >
<font-face units-per-em="2048" ascent="1761" descent="-287" />
<missing-glyph horiz-adv-x="751" />
<glyph unicode=" "  horiz-adv-x="751" />
<glyph unicode="&#x09;" horiz-adv-x="751" />
<glyph unicode="&#xa0;" horiz-adv-x="751" />
<glyph unicode="!" horiz-adv-x="669" d="M240 1495h190l-20 -1079h-150zM246 0v252h178v-252h-178z" />
<glyph unicode="&#x22;" horiz-adv-x="827" d="M147 1577h164l-20 -506h-123zM516 1577h164l-21 -506h-122z" />
<glyph unicode="#" horiz-adv-x="1394" d="M106 393v131h250l86 488h-231v131h256l61 352h152l-64 -352h302l61 352h151l-63 -352h223v-131h-246l-86 -488h228v-131h-252l-70 -393h-149l69 393h-301l-69 -393h-150l70 393h-228zM508 524h299l86 488h-299z" />
<glyph unicode="$" horiz-adv-x="1165" d="M117 1112q0 154 101 245t294 105v207h131v-207q178 -6 358 -57v-145q-174 61 -358 69v-504q225 -59 315.5 -160.5t90.5 -254.5q0 -164 -105.5 -262.5t-300.5 -114.5v-207h-131v207q-197 6 -375 80v149q180 -88 375 -96v549q-395 106 -395 397zM270 1112q0 -182 242 -254 v469q-242 -20 -242 -215zM643 168q121 14 184.5 76.5t63.5 165.5q0 104 -56.5 167.5t-191.5 102.5v-512z" />
<glyph unicode="%" horiz-adv-x="1687" d="M86 1122q0 188 90 291t254 103t255 -102.5t91 -291.5q0 -186 -91 -288.5t-255 -102.5t-254 102.5t-90 288.5zM244 1122q0 -268 186 -268q188 0 188 268q0 270 -188 271q-186 -1 -186 -271zM350 0l821 1495h166l-821 -1495h-166zM911 373q0 186 91.5 288.5t255 102.5 t254 -102.5t90.5 -288.5q0 -188 -90.5 -290.5t-254 -102.5t-255 102.5t-91.5 290.5zM1069 373q0 -270 188 -271q186 0 187 271q0 268 -187 268q-188 0 -188 -268z" />
<glyph unicode="&#x26;" horiz-adv-x="1474" d="M117 348q0 113 84 221.5t288 245.5l-24 27q-113 117 -159 202.5t-46 169.5q0 135 105.5 218.5t287.5 83.5q186 0 285.5 -78t99.5 -215q0 -111 -71.5 -206t-255.5 -220l364 -387v446h154v-610l233 -246h-196l-138 145q-254 -166 -534 -165q-236 0 -356.5 95t-120.5 273z M281 354q0 -117 82.5 -180t238.5 -63q127 0 222.5 32.5t199.5 110.5l-440 463q-166 -109 -234.5 -194t-68.5 -169zM422 1214q0 -66 35 -125t159 -192q164 111 216.5 175.5t52.5 141.5q0 172 -232 172q-109 0 -170 -47t-61 -125z" />
<glyph unicode="'" horiz-adv-x="491" d="M158 1577h178l-21 -506h-137z" />
<glyph unicode="(" horiz-adv-x="796" d="M147 645.5q0 274.5 102.5 514t295.5 417.5h155q-395 -373 -395 -932t395 -932h-155q-193 178 -295.5 418t-102.5 514.5z" />
<glyph unicode=")" horiz-adv-x="796" d="M96 -287q395 373 395.5 932t-395.5 932h156q193 -178 295 -417.5t102 -514t-102.5 -514.5t-294.5 -418h-156z" />
<glyph unicode="*" horiz-adv-x="1085" d="M106 1171l41 125l336 -114l-6 354h131l-4 -354l336 114l41 -125l-338 -106l211 -283l-106 -77l-205 288l-203 -288l-107 77l211 283z" />
<glyph unicode="+" horiz-adv-x="1509" d="M168 528v131h518v529h137v-529h518v-131h-518v-528h-137v528h-518z" />
<glyph unicode="," horiz-adv-x="628" d="M127 -225l149 506h207l-204 -506h-152z" />
<glyph unicode="-" horiz-adv-x="962" d="M168 522v129h629v-129h-629z" />
<glyph unicode="." horiz-adv-x="587" d="M199 0v281h190v-281h-190z" />
<glyph unicode="/" horiz-adv-x="1044" d="M76 -82l704 1577h160l-707 -1577h-157z" />
<glyph unicode="0" d="M111 747.5q0 411.5 141 590t397 178.5t397.5 -178.5t141.5 -590t-141.5 -589.5t-397.5 -178t-397 178t-141 589.5zM274 747.5q0 -333.5 93.5 -484t282 -150.5t281.5 150.5t93 484t-93 484t-281.5 150.5t-282 -150.5t-93.5 -484z" />
<glyph unicode="1" d="M240 973v180l424 342h163v-1495h-163v1313h-5z" />
<glyph unicode="2" d="M184 0v137q436 360 592 562t156 380q0 143 -80 220t-234 77q-195 0 -403 -119v160q197 98 424 99q219 0 340 -112t121 -312.5t-145.5 -406.5t-544.5 -544v-4h696v-137h-922z" />
<glyph unicode="3" d="M188 1358v137h897v-137l-489 -481v-5h61q217 0 333 -104t116 -303q0 -233 -137.5 -359t-395.5 -126q-209 0 -370 77v158q172 -98 370 -98q180 0 274.5 88t94.5 260q0 145 -97 216t-310 71h-150v127l489 475v4h-686z" />
<glyph unicode="4" d="M45 348v133l717 1014h162v-1014h254v-133h-254v-348h-162v348h-717zM213 481h549v774h-4l-545 -770v-4z" />
<glyph unicode="5" d="M209 57v156q186 -96 364 -96q387 0 388 375q0 158 -84 240.5t-242 82.5q-162 0 -268 -94h-144l45 774h795v-137h-647l-29 -484h4q121 72 273 72q219 0 339.5 -118.5t120.5 -335.5q0 -250 -140 -381t-411 -131q-196 -1 -364 77z" />
<glyph unicode="6" d="M131 655q0 432 159 646.5t451 214.5q166 0 301 -48v-145q-141 55 -301 55q-188 0 -306 -142t-132 -413l4 -2q125 176 398 176q221 0 352 -134t131 -357q0 -248 -141.5 -387t-382.5 -139q-533 -1 -533 675zM301 518.5q0 -153.5 90 -277.5t273 -124q172 0 266 99t94 290 q0 166 -97.5 265t-256.5 99q-162 0 -265.5 -99t-103.5 -252.5z" />
<glyph unicode="7" d="M174 1358v137h963v-137q-360 -592 -592 -1358h-172q242 758 606 1354v4h-805z" />
<glyph unicode="8" d="M111 403q0 131 88 233.5t252 154.5v4q-137 51 -212 145t-75 217q0 162 130 260.5t355 98.5t355.5 -98.5t130.5 -260.5q0 -244 -287 -350v-4q340 -100 340 -400q0 -195 -143.5 -309t-395.5 -114t-395 114t-143 309zM266 410q0 -139 102.5 -219t280.5 -80t278.5 80.5 t100.5 218.5q0 248 -385 321q-186 -37 -281.5 -120.5t-95.5 -200.5zM322 1143q0 -100 86 -176t241 -107q158 31 245 107.5t87 175.5q0 113 -87 177t-245 64q-156 0 -241.5 -64t-85.5 -177z" />
<glyph unicode="9" d="M113 1010q0 233 145 369.5t381 136.5q532 0 532 -656q0 -457 -155.5 -668.5t-454.5 -211.5q-164 0 -321 47v145q154 -55 321 -55q199 0 315.5 140t120.5 417l-4 2q-123 -178 -395 -178q-223 0 -354 137t-131 375zM276 1010q0 -178 97.5 -281.5t259.5 -103.5 q164 0 265 102t101 270q0 61 -19 124t-59 122.5t-113 97t-169 37.5q-166 0 -264.5 -97t-98.5 -271z" />
<glyph unicode=":" horiz-adv-x="751" d="M281 0v281h190v-281h-190zM281 799v280h190v-280h-190z" />
<glyph unicode=";" horiz-adv-x="792" d="M168 -225l149 506h207l-205 -506h-151zM307 799v280h193v-280h-193z" />
<glyph unicode="&#x3c;" horiz-adv-x="1372" d="M137 510v168l1039 475v-143l-938 -414v-4l938 -414v-143z" />
<glyph unicode="=" horiz-adv-x="1550" d="M188 293v131h1174v-131h-1174zM188 764v131h1174v-131h-1174z" />
<glyph unicode="&#x3e;" horiz-adv-x="1372" d="M199 35v143l936 414v4l-936 414v143l1038 -475v-168z" />
<glyph unicode="?" d="M178 1300v150q223 66 471 66q238 0 368 -90.5t130 -243.5q0 -74 -19.5 -131.5t-63.5 -104.5t-77 -73.5t-94 -67.5q-66 -45 -98.5 -70.5t-77.5 -74t-63.5 -105.5t-18.5 -131h-164q0 72 18.5 135.5t42 104.5t69.5 85t75 65.5t84 57.5q76 51 111.5 81t70.5 87.5t35 126.5 q0 209 -348 209q-215 0 -451 -76zM465 0v252h178v-252h-178z" />
<glyph unicode="@" horiz-adv-x="1693" d="M86 748q0 334 216 547.5t546 213.5q336 0 548 -211t212 -550q0 -201 -112 -309.5t-308 -108.5q-102 0 -154 43q-53 35 -59 98h-2q-104 -141 -281 -141q-139 0 -219 102q-102 125 -57 328q47 199 158.5 307.5t263.5 108.5q82 0 139 -52q41 -35 61 -82h4l31 121h170 l-123 -518q-33 -150 -4 -182q23 -25 70 -25q141 0 218 80t77 230q0 287 -175.5 462.5t-457.5 175.5q-281 0 -457 -178t-176 -460.5t176 -460.5t457 -178q199 0 354 88v-136q-164 -76 -354 -75q-328 0 -545 213t-217 549zM571 754q-35 -137 23 -217q45 -61 125 -62 q195 0 266 287q35 139 -20 217q-43 59 -123 59q-92 0 -165 -75.5t-106 -208.5z" />
<glyph unicode="A" horiz-adv-x="1366" d="M66 0l526 1495h184l524 -1495h-174l-143 436h-604l-143 -436h-170zM422 567h518l-258 781h-4z" />
<glyph unicode="B" horiz-adv-x="1232" d="M178 12v1471q180 33 363 33q539 0 538 -363q0 -125 -83 -216t-224 -122v-4q176 -27 275.5 -131.5t99.5 -249.5q0 -451 -586 -450q-211 -1 -383 32zM342 131q121 -18 219 -18q426 0 426 331q0 295 -508 295h-137v-608zM342 870h137q446 0 447 263q0 127 -93.5 188 t-291.5 61q-106 0 -199 -18v-494z" />
<glyph unicode="C" horiz-adv-x="1263" d="M86 748q0 362 172 565t473 203q186 0 354 -52v-145q-168 59 -340 59q-231 0 -362 -165.5t-131 -464.5q0 -297 136 -464t364 -167q174 0 344 59v-145q-176 -51 -359 -51q-295 0 -473 201.5t-178 566.5z" />
<glyph unicode="D" horiz-adv-x="1355" d="M178 12v1471q166 33 363 33q729 0 729 -748q0 -788 -729 -788q-199 -1 -363 32zM342 135q92 -18 199 -18q297 0 435 153.5t138 497.5q0 313 -140 461.5t-433 148.5q-106 0 -199 -18v-1225z" />
<glyph unicode="E" horiz-adv-x="1208" d="M178 0v1495h875v-137h-711v-488h670v-131h-670v-602h711v-137h-875z" />
<glyph unicode="F" horiz-adv-x="1177" d="M178 0v1495h854v-137h-690v-508h649v-131h-649v-719h-164z" />
<glyph unicode="G" horiz-adv-x="1413" d="M86 748q0 356 196.5 562t534.5 206q180 0 361 -48v-143q-174 57 -349 57q-272 0 -424.5 -166.5t-152.5 -467.5q0 -293 149.5 -464t395.5 -171q152 0 293 51v575h-486v131h643v-800q-215 -90 -465 -90q-307 0 -501.5 208t-194.5 560z" />
<glyph unicode="H" horiz-adv-x="1392" d="M178 0v1495h164v-625h711v625h164v-1495h-164v739h-711v-739h-164z" />
<glyph unicode="I" horiz-adv-x="655" d="M240 0v1495h178v-1495h-178z" />
<glyph unicode="J" horiz-adv-x="1089" d="M86 41v152q184 -76 363 -76q162 0 237.5 96t75.5 319v963h170v-1003q0 -266 -118 -389t-365 -123q-197 0 -363 61z" />
<glyph unicode="K" horiz-adv-x="1263" d="M178 0v1495h164v-666h4l625 666h196l-678 -717l699 -778h-197l-645 729h-4v-729h-164z" />
<glyph unicode="L" horiz-adv-x="1198" d="M178 0v1495h170v-1356h725v-139h-895z" />
<glyph unicode="M" horiz-adv-x="1679" d="M178 0v1495h168l490 -901h4l489 901h174v-1495h-164v1221h-4l-422 -777h-151l-422 777h-4v-1221h-158z" />
<glyph unicode="N" horiz-adv-x="1413" d="M178 0v1495h170l723 -1229h4v1229h162v-1495h-170l-723 1229h-4v-1229h-162z" />
<glyph unicode="O" horiz-adv-x="1468" d="M86 747.5q0 364.5 173 566.5t476 202q301 0 474 -202t173 -566.5t-173 -566t-474 -201.5q-303 0 -476 201.5t-173 566zM252 747.5q0 -311.5 125 -471t358 -159.5q231 0 356.5 159.5t125.5 471t-125 471t-357 159.5q-233 0 -358 -159.5t-125 -471z" />
<glyph unicode="P" horiz-adv-x="1236" d="M178 0v1483q195 33 416 33q279 0 423 -118t144 -337q0 -238 -144.5 -360.5t-422.5 -122.5q-135 0 -252 12v-590h-164zM342 725q119 -16 240 -16q203 0 310 88t107 251.5t-106.5 248.5t-310.5 85q-131 0 -240 -20v-637z" />
<glyph unicode="Q" horiz-adv-x="1531" d="M86 747.5q0 364.5 173 566.5t476 202q301 0 474 -202t173 -566q0 -254 -92 -430.5t-258 -258.5v-4q156 -39 291 -136t217 -226h-194q-109 162 -242 224.5t-369 62.5q-303 0 -476 201.5t-173 566zM252 747.5q0 -311.5 125 -471t358 -159.5q231 0 356.5 159.5t125.5 471 t-125 471t-357 159.5q-233 0 -358 -159.5t-125 -471z" />
<glyph unicode="R" horiz-adv-x="1277" d="M178 0v1485q178 31 383 31q287 0 433.5 -105.5t146.5 -300.5q0 -156 -84 -260.5t-238 -142.5v-5q92 -49 182 -266l181 -436h-170l-176 432q-61 147 -115.5 183t-214.5 36h-164v-651h-164zM342 782h164q244 0 358.5 79t114.5 235q0 287 -432 286q-109 0 -205 -18v-582z " />
<glyph unicode="S" horiz-adv-x="1140" d="M127 1151q0 170 110.5 267.5t309.5 97.5q223 0 416 -86v-156q-199 109 -402 108q-123 0 -197.5 -57t-74.5 -174q0 -201 266 -291q254 -86 356.5 -194.5t102.5 -276.5q0 -201 -120 -305t-353 -104q-213 0 -389 98v162q174 -123 374 -123q324 0 324 272q0 113 -69.5 186.5 t-229.5 126.5q-424 146 -424 449z" />
<glyph unicode="T" horiz-adv-x="1304" d="M127 1356v139h1051v-139h-443v-1356h-164v1356h-444z" />
<glyph unicode="U" horiz-adv-x="1351" d="M158 512v983h166v-989q0 -199 88 -293t268 -94t267 94t87 293v989h162v-983q0 -264 -133 -398t-387 -134q-252 0 -385 134t-133 398z" />
<glyph unicode="V" horiz-adv-x="1366" d="M66 1495h176l442 -1333h4l442 1333h170l-524 -1495h-184z" />
<glyph unicode="W" horiz-adv-x="1810" d="M96 1495h168l260 -1319h4l273 1319h213l274 -1319h4l260 1319h162l-328 -1495h-204l-275 1319h-4l-274 -1319h-205z" />
<glyph unicode="X" horiz-adv-x="1339" d="M117 0l448 758l-438 737h190l353 -623h4l354 623h184l-438 -737l449 -758h-193l-360 643h-4l-363 -643h-186z" />
<glyph unicode="Y" horiz-adv-x="1339" d="M66 1495h192l412 -725h4l413 725h187l-518 -862v-633h-172v633z" />
<glyph unicode="Z" horiz-adv-x="1269" d="M158 0v137l764 1217v4h-764v137h956v-137l-764 -1217v-4h764v-137h-956z" />
<glyph unicode="[" horiz-adv-x="970" d="M240 -287v1864h553v-123h-404v-1618h404v-123h-553z" />
<glyph unicode="\" horiz-adv-x="1044" d="M106 1495h158l707 -1577h-160z" />
<glyph unicode="]" horiz-adv-x="970" d="M178 -164h404v1618h-404v123h553v-1864h-553v123z" />
<glyph unicode="^" horiz-adv-x="1304" d="M86 573l467 922h199l467 -922h-168l-398 818h-2l-397 -818h-168z" />
<glyph unicode="_" horiz-adv-x="1159" d="M0 -164h1161v-123h-1161v123z" />
<glyph unicode="`" horiz-adv-x="563" d="M35 1659h207l237 -518h-139z" />
<glyph unicode="a" horiz-adv-x="1099" d="M106 301q0 170 135.5 272.5t432.5 102.5h123v55q0 125 -57.5 175t-202.5 50q-180 0 -373 -77v141q184 66 373 65q233 0 324 -87t91 -308v-690h-147l-2 182h-4q-121 -203 -379 -202q-139 0 -226.5 88t-87.5 233zM264 313q0 -92 53.5 -148t137.5 -56q147 0 244.5 98 t97.5 260v96h-123q-203 0 -306.5 -65.5t-103.5 -184.5z" />
<glyph unicode="b" horiz-adv-x="1191" d="M168 0v1495h158v-569h4q129 160 336 159q199 0 314.5 -144t115.5 -409q0 -256 -119 -404t-311 -148q-205 0 -344 172h-5l-2 -152h-147zM326 375q0 -106 94 -189.5t213 -83.5q145 0 226 108.5t81 321.5q0 430 -307 431q-121 0 -214 -84t-93 -189v-315z" />
<glyph unicode="c" horiz-adv-x="1017" d="M86 532q0 270 126 411.5t355 141.5q141 0 293 -36v-138q-139 47 -282 47q-328 0 -328 -426q0 -221 86 -323.5t262 -102.5q145 0 272 56v-137q-141 -45 -282 -45q-242 0 -372 140t-130 412z" />
<glyph unicode="d" horiz-adv-x="1191" d="M96 532q0 264 116 408.5t314 144.5q207 0 338 -159h4v569h156v-1495h-147l-3 152h-4q-135 -172 -344 -172q-190 0 -310 148t-120 404zM254 532q0 -213 81 -321.5t226 -108.5q119 0 213 83t94 190v315q0 104 -93 188.5t-214 84.5q-307 -1 -307 -431z" />
<glyph unicode="e" horiz-adv-x="1083" d="M86 532q0 285 126 419t345 134q430 0 430 -538q0 -18 -4 -55h-739q12 -393 370 -394q141 0 306 68v-135q-168 -51 -318 -51q-252 0 -384 139t-132 413zM246 612h588q-6 354 -277 355q-291 -1 -311 -355z" />
<glyph unicode="f" horiz-adv-x="1048" d="M117 901v123h252v117q0 197 83 286t265 89q92 0 184 -31v-125q-72 33 -156 33q-119 0 -166 -53.5t-47 -192.5v-123h349v-123h-349v-901h-163v901h-252z" />
<glyph unicode="g" horiz-adv-x="1161" d="M96 547q0 270 114 404t300 134q207 0 340 -172h4l2 152h148v-1004q0 -276 -119 -404t-373 -128q-162 0 -299 45v137q143 -59 299 -59q178 0 257 94t79 309v103h-4q-127 -158 -334 -158q-186 0 -300 144.5t-114 402.5zM254 547q0 -209 79 -316.5t218 -107.5q119 0 208 88 t89 211v237q0 123 -89 213.5t-208 90.5q-297 0 -297 -416z" />
<glyph unicode="h" horiz-adv-x="1175" d="M168 0v1495h158v-592h4q145 182 344 182q184 0 269 -103t85 -347v-635h-154v608q0 207 -54 277.5t-187 70.5q-106 0 -206.5 -101t-100.5 -208v-647h-158z" />
<glyph unicode="i" horiz-adv-x="643" d="M240 0v1065h163v-1065h-163zM240 1317v219h163v-219h-163z" />
<glyph unicode="j" horiz-adv-x="735" d="M-16 -317q223 0 285.5 56t62.5 255v1071h164v-1071q0 -268 -99.5 -356.5t-412.5 -88.5v134zM332 1317v219h164v-219h-164z" />
<glyph unicode="k" horiz-adv-x="1136" d="M168 0v1495h158v-905h4l514 475h194l-559 -512l563 -553h-192l-520 516h-4v-516h-158z" />
<glyph unicode="l" horiz-adv-x="643" d="M240 0v1536h163v-1536h-163z" />
<glyph unicode="m" horiz-adv-x="1615" d="M158 0v1065h149l4 -145h4q115 166 279 165q100 0 160.5 -44t99.5 -146h4q117 190 299 190q164 0 237.5 -94t73.5 -315v-676h-153v635q0 190 -44 259t-155 69q-76 0 -150.5 -81t-74.5 -167v-715h-154v635q0 190 -44 259t-154 69q-76 0 -150 -81t-74 -167v-715h-157z" />
<glyph unicode="n" horiz-adv-x="1165" d="M158 0v1065h147l2 -160h4q150 180 353 180q186 0 270 -104t84 -346v-635h-154v614q0 203 -55 276t-186 73q-106 0 -207 -98.5t-101 -205.5v-659h-157z" />
<glyph unicode="o" horiz-adv-x="1146" d="M86 532.5q0 262.5 129 407.5t358 145q231 0 360.5 -144t129.5 -408.5t-129 -408.5t-361 -144q-229 0 -358 145t-129 407.5zM246 532.5q0 -430.5 327.5 -430.5t327.5 430.5t-327.5 430.5t-327.5 -430.5z" />
<glyph unicode="p" horiz-adv-x="1181" d="M158 -451v1516h147l2 -154h4q135 174 344 174q199 0 314.5 -144t115.5 -409q0 -256 -118.5 -404t-311.5 -148q-209 0 -336 159h-4v-590h-157zM315 387q0 -117 92.5 -201t215.5 -84q143 0 225 110t82 320q0 430 -307 431q-125 0 -216.5 -85t-91.5 -200v-291z" />
<glyph unicode="q" horiz-adv-x="1181" d="M96 532q0 264 116 408.5t314 144.5q209 0 344 -174h4l3 154h147v-1516h-156v590h-4q-129 -160 -338 -159q-190 0 -310 148t-120 404zM254 532q0 -211 81 -320.5t226 -109.5q123 0 215 84t92 201v291q0 115 -92 200t-215 85q-307 -1 -307 -431z" />
<glyph unicode="r" horiz-adv-x="929" d="M158 0v1065h157v-238h4q61 109 182.5 173.5t270.5 64.5h41v-137h-41q-213 0 -331.5 -110.5t-118.5 -313.5v-504h-164z" />
<glyph unicode="s" horiz-adv-x="1024" d="M127 793q0 135 101.5 213.5t287.5 78.5q174 0 346 -55v-131q-170 63 -332 64q-246 0 -245 -158q0 -72 48 -117t177 -74q221 -49 305 -124.5t84 -217.5q0 -137 -105.5 -214.5t-297.5 -77.5q-182 0 -349 67v131q164 -76 334 -76q260 0 260 170q0 74 -52 123t-195 82 q-201 47 -284 122t-83 194z" />
<glyph unicode="t" horiz-adv-x="1034" d="M106 901v123h230v389h156v-389h387v-123h-387v-559q0 -147 38.5 -193.5t149.5 -46.5q92 0 170 29v-127q-92 -25 -197 -24q-180 0 -248.5 74.5t-68.5 273.5v573h-230z" />
<glyph unicode="u" horiz-adv-x="1155" d="M147 403v662h154v-641q0 -184 55.5 -253t175.5 -69q111 0 209.5 95.5t98.5 208.5v659h157v-1065h-147l-2 160h-4q-143 -180 -352 -180q-178 0 -261.5 98t-83.5 325z" />
<glyph unicode="v" horiz-adv-x="1126" d="M76 1065h170l319 -973h4l318 973h166l-383 -1065h-211z" />
<glyph unicode="w" horiz-adv-x="1626" d="M96 1065h170l223 -930h5l217 930h211l217 -930h4l223 930h164l-293 -1065h-205l-217 915h-4l-217 -915h-205z" />
<glyph unicode="x" horiz-adv-x="1120" d="M106 0l365 541l-354 524h176l268 -424h4l269 424h170l-353 -524l363 -541h-176l-279 440h-4l-276 -440h-173z" />
<glyph unicode="y" horiz-adv-x="1126" d="M76 1065h166l307 -877h4l340 877h160l-625 -1516h-160l201 459z" />
<glyph unicode="z" horiz-adv-x="1105" d="M158 0v123l604 815v4h-604v123h792v-123l-604 -815v-4h604v-123h-792z" />
<glyph unicode="{" horiz-adv-x="1058" d="M127 580v131h88q172 0 172 252v307q0 164 65.5 235.5t213.5 71.5h204v-123h-135q-111 0 -154.5 -43t-43.5 -182v-273q0 -123 -41 -195.5t-129 -113.5v-4q88 -41 129 -113.5t41 -195.5v-273q0 -139 44 -182t154 -43h135v-123h-204q-147 0 -213 72t-66 235v308 q0 252 -172 252h-88z" />
<glyph unicode="|" horiz-adv-x="710" d="M281 -451v2110h149v-2110h-149z" />
<glyph unicode="}" horiz-adv-x="1058" d="M188 -164h138q111 0 153.5 43t42.5 182v273q0 231 172 309v4q-172 78 -172 309v273q0 139 -43 182t-153 43h-138v123h205q147 0 214 -71.5t67 -235.5v-307q0 -252 170 -252h88v-131h-88q-170 0 -170 -252v-308q0 -164 -66.5 -235.5t-214.5 -71.5h-205v123z" />
<glyph unicode="~" horiz-adv-x="1433" d="M117 586q135 213 350 213q154 0 287 -133q106 -104 215 -105q76 0 135 36t119 122l96 -76q-135 -213 -350 -213q-156 0 -289 133q-106 104 -213 105q-76 0 -135.5 -36t-118.5 -122z" />
<glyph unicode="&#xa5;" horiz-adv-x="1359" d="M76 1495h192l412 -725h4l414 725h186l-465 -772h367v-109h-420v-194h420v-109h-420v-311h-172v311h-420v109h420v194h-420v109h367z" />
<glyph unicode="&#xad;" horiz-adv-x="962" d="M168 522v129h629v-129h-629z" />
<glyph unicode="&#x2000;" horiz-adv-x="833" />
<glyph unicode="&#x2001;" horiz-adv-x="1669" />
<glyph unicode="&#x2002;" horiz-adv-x="833" />
<glyph unicode="&#x2003;" horiz-adv-x="1669" />
<glyph unicode="&#x2004;" horiz-adv-x="555" />
<glyph unicode="&#x2005;" horiz-adv-x="415" />
<glyph unicode="&#x2006;" horiz-adv-x="276" />
<glyph unicode="&#x2007;" horiz-adv-x="276" />
<glyph unicode="&#x2008;" horiz-adv-x="206" />
<glyph unicode="&#x2009;" horiz-adv-x="333" />
<glyph unicode="&#x200a;" horiz-adv-x="92" />
<glyph unicode="&#x2010;" horiz-adv-x="962" d="M168 522v129h629v-129h-629z" />
<glyph unicode="&#x2011;" horiz-adv-x="962" d="M168 522v129h629v-129h-629z" />
<glyph unicode="&#x2012;" horiz-adv-x="962" d="M168 522v129h629v-129h-629z" />
<glyph unicode="&#x2013;" horiz-adv-x="972" d="M0 528v131h973v-131h-973z" />
<glyph unicode="&#x2014;" horiz-adv-x="1945" d="M0 528v131h1946v-131h-1946z" />
<glyph unicode="&#x2018;" horiz-adv-x="598" d="M96 1071l205 506h152l-152 -506h-205z" />
<glyph unicode="&#x2019;" horiz-adv-x="598" d="M147 1071l150 506h207l-205 -506h-152z" />
<glyph unicode="&#x201c;" horiz-adv-x="946" d="M86 1071l205 506h137l-149 -506h-193zM467 1071l205 506h137l-150 -506h-192z" />
<glyph unicode="&#x201d;" horiz-adv-x="946" d="M137 1071l150 506h192l-205 -506h-137zM518 1071l152 506h190l-205 -506h-137z" />
<glyph unicode="&#x2022;" horiz-adv-x="942" d="M260 594q0 88 61.5 149.5t149.5 61.5t150.5 -61.5t62.5 -149.5t-62.5 -149.5t-150.5 -61.5t-149.5 61.5t-61.5 149.5z" />
<glyph unicode="&#x2026;" horiz-adv-x="2048" d="M188 598v287h193v-287h-193zM870 598v287h193v-287h-193zM1552 598v287h193v-287h-193z" />
<glyph unicode="&#x202f;" horiz-adv-x="333" />
<glyph unicode="&#x205f;" horiz-adv-x="415" />
<glyph unicode="&#x2122;" horiz-adv-x="2983" d="M1483 0v1495h168l490 -901h4l489 901h174v-1495h-164v1221h-4l-422 -777h-151l-422 777h-4v-1221h-158zM127 1356v139h1051v-139h-443v-1356h-164v1356h-444z" />
<glyph unicode="&#xe000;" horiz-adv-x="1065" d="M0 1065h1065v-1065h-1065v1065z" />
<glyph unicode="&#xfb01;" horiz-adv-x="1691" d="M1289 0v1065h163v-1065h-163zM1289 1317v219h163v-219h-163zM117 901v123h252v117q0 197 83 286t265 89q92 0 184 -31v-125q-72 33 -156 33q-119 0 -166 -53.5t-47 -192.5v-123h349v-123h-349v-901h-163v901h-252z" />
<glyph unicode="&#xfb02;" horiz-adv-x="1691" d="M1289 0v1536h163v-1536h-163zM117 901v123h252v117q0 197 83 286t265 89q92 0 184 -31v-125q-72 33 -156 33q-119 0 -166 -53.5t-47 -192.5v-123h349v-123h-349v-901h-163v901h-252z" />
<glyph unicode="&#xfb03;" horiz-adv-x="2740" d="M2337 0v1065h163v-1065h-163zM2337 1317v219h163v-219h-163zM1166 901v123h252v117q0 197 83 286t265 89q92 0 184 -31v-125q-72 33 -156 33q-119 0 -166 -53.5t-47 -192.5v-123h349v-123h-349v-901h-163v901h-252zM117 901v123h252v117q0 197 83 286t265 89 q92 0 184 -31v-125q-72 33 -156 33q-119 0 -166 -53.5t-47 -192.5v-123h349v-123h-349v-901h-163v901h-252z" />
<glyph unicode="&#xfb04;" horiz-adv-x="2740" d="M2337 0v1536h163v-1536h-163zM1166 901v123h252v117q0 197 83 286t265 89q92 0 184 -31v-125q-72 33 -156 33q-119 0 -166 -53.5t-47 -192.5v-123h349v-123h-349v-901h-163v901h-252zM117 901v123h252v117q0 197 83 286t265 89q92 0 184 -31v-125q-72 33 -156 33 q-119 0 -166 -53.5t-47 -192.5v-123h349v-123h-349v-901h-163v901h-252z" />
</font>
</defs>
</svg>
