<?xml version="1.0" standalone="no"?>
<!DOCTYPE svg PUBLIC "-//W3C//DTD SVG 1.1//EN" "http://www.w3.org/Graphics/SVG/1.1/DTD/svg11.dtd" >
<svg xmlns="http://www.w3.org/2000/svg">
<metadata></metadata>
<defs>
<font id="ostrich_sansbold" horiz-adv-x="1705" >
<font-face units-per-em="2048" ascent="1536" descent="-512" />
<missing-glyph horiz-adv-x="630" />
<glyph horiz-adv-x="2048" />
<glyph horiz-adv-x="2048" />
<glyph unicode="&#xd;" horiz-adv-x="630" />
<glyph unicode=" "  horiz-adv-x="630" />
<glyph unicode="&#x09;" horiz-adv-x="630" />
<glyph unicode="&#xa0;" horiz-adv-x="630" />
<glyph unicode="!" horiz-adv-x="299" d="M0 4v217h72v-145h49v145h72v-217h-193zM0 334v1179h72v-1179h-72zM121 334v1179h72v-1179h-72z" />
<glyph unicode="&#x22;" horiz-adv-x="579" d="M0 1204v309h193v-309h-193zM72 1276h49v164h-49v-164zM285 1204v309h192v-309h-192zM356 1276h50v164h-50v-164z" />
<glyph unicode="#" horiz-adv-x="1169" d="M-41 467v74h360l-106 -541h-72l90 467h-272zM-41 588v74h311l37 192h-284v74h372l-65 -340h-371zM23 975v74h323l90 464h74l-104 -538h-383zM262 0l107 541h305l-107 -541h-69l90 467h-158l-92 -467h-76zM379 588l65 340h308l-68 -340h-305zM455 975l106 538h72l-90 -464 h157l88 464h78l-106 -538h-305zM467 662h158l39 192h-158zM616 0l107 541h344v-74h-283l-90 -467h-78zM733 588l68 340h329v-74h-270l-39 -192h246v-74h-334zM809 975l106 538h70l-88 -464h233v-74h-321z" />
<glyph unicode="$" horiz-adv-x="729" d="M0 481v99h72v-99q0 -147 61 -227q59 -72 162 -78v-176h-72v115q-53 14 -89 40.5t-56 53.5q-78 96 -78 272zM0 1032q0 78 19.5 142.5t54.5 115.5q55 76 149 109v114h72v-174q-49 -4 -91 -27.5t-71 -64.5t-45 -95t-16 -120q0 -119 75 -201q31 -33 66 -52t63 -34 q10 -4 17.5 -8t13.5 -8q14 -10 37 -18q27 -12 56.5 -28.5t56 -44.5t44 -68t17.5 -97q0 -117 -52 -183.5t-147 -66.5q-98 0 -147 62q-51 59 -51 196v99h72v-99q0 -109 36 -151q8 -10 27.5 -22.5t62.5 -12.5q41 0 67 18.5t39 46t17 58.5t4 55q0 39 -10 65.5t-27.5 45t-42 33 t-53.5 28.5q-29 10 -43 21q-4 4 -11 7t-15 7q-29 16 -70 38.5t-80 63.5q-94 100 -94 250zM121 1032q0 117 51 187q51 74 147 73q100 0 150 -61q49 -66 49 -199v-96h-72v96q0 109 -34 154q-10 10 -30 21.5t-63 11.5t-68.5 -22.5t-38.5 -53.5t-16 -62.5t-3 -48.5 q0 -39 10 -65.5t28.5 -47t44 -37t56.5 -30.5q10 -4 19 -9t18 -12q12 -4 24 -10q27 -12 70 -35.5t82 -63.5t67.5 -100.5t28.5 -148.5q0 -154 -78 -254q-57 -78 -145 -102v-117h-74v176q100 6 162 86q61 80 61 211q0 70 -21.5 118t-53 79.5t-66.5 51t-61 32.5q-10 4 -18.5 8 t-14.5 8t-14.5 8t-18.5 10q-27 12 -58.5 31t-58 46.5t-44 67.5t-17.5 99zM344 1339v174h74v-112q53 -16 88 -42t57 -52q78 -100 78 -275v-96h-74v96q0 152 -61 230q-55 72 -162 77z" />
<glyph unicode="%" horiz-adv-x="1259" d="M0 1022v176q0 55 17.5 101.5t48 80t73.5 52t92 18.5q102 0 168 -70.5t66 -181.5v-176q0 -55 -17.5 -101.5t-48 -80t-73.5 -52t-95 -18.5q-100 0 -165.5 70.5t-65.5 181.5zM72 1022q0 -74 41 -125q45 -55 118 -55q76 0 121 55q39 47 39 125v176q0 35 -9 67.5t-30 55.5 q-45 57 -121 57q-74 0 -118 -57q-41 -47 -41 -123v-176zM121 1022v176q0 47 24.5 89t85.5 42q31 0 52.5 -12t35 -30.5t19.5 -42t6 -46.5v-176q0 -23 -6 -46.5t-19.5 -42t-35 -30.5t-52.5 -12q-61 0 -85.5 42t-24.5 89zM193 1022q0 -59 38 -59q39 0 39 59v176q0 59 -39 59 t-38 -59v-176zM199 4l559 1509h82l-568 -1509h-73zM326 4l565 1509h74l-559 -1509h-80zM694 315v177q0 111 66 181t168 70q49 0 92 -18t73.5 -52t48 -80t17.5 -101v-177q0 -55 -17.5 -101t-48 -80t-73.5 -52.5t-92 -18.5q-102 0 -168 71t-66 181zM768 315q0 -35 9 -67.5 t30 -57.5q45 -55 121 -55q74 0 119 55q41 51 40 125v177q0 76 -40 122q-45 57 -119 58q-76 0 -121 -58q-20 -23 -29.5 -55.5t-9.5 -66.5v-177zM815 315v177q0 23 6 46t19.5 41.5t35 31t52.5 12.5q61 0 85.5 -42t24.5 -89v-177q0 -47 -24.5 -89t-85.5 -42q-31 0 -52.5 12.5 t-35 31t-19.5 42t-6 45.5zM889 315q0 -59 39 -59t39 59v177q0 59 -39 59t-39 -59v-177z" />
<glyph unicode="&#x26;" horiz-adv-x="1036" d="M0 408q0 80 19.5 140t51 106t70.5 82t78 69q8 6 15.5 12t13.5 12q-18 31 -38 70t-36 84t-27.5 91t-11.5 93q0 152 43 232q63 115 197 114q145 0 205 -133q23 -49 27.5 -106t4.5 -107q0 -86 -21.5 -166.5t-62.5 -148.5q-10 -16 -18 -28.5t-16 -22.5l161 -275q4 35 4 69v62 v99h74v-99q0 -68 -8 -156.5t-41 -170.5l-278 479q14 14 36.5 44t44 74t38 104.5t16.5 135.5q0 43 -5.5 93.5t-23.5 91.5q-37 88 -137 88q-90 0 -133 -74q-33 -66 -33 -199q0 -51 16.5 -105t38 -101.5t44 -85t34.5 -58.5q-18 -18 -37.5 -34.5t-38.5 -32.5q-37 -31 -72.5 -64 t-62.5 -73t-43 -89t-16 -116q0 -68 20.5 -128.5t59.5 -105.5q86 -98 223 -98q209 0 313 153l82 -141l51 -84h-80l-65 102q-119 -102 -301 -102q-84 0 -156 32t-123 91q-96 115 -96 281zM121 408q0 57 13 101t38 79t56.5 64.5t68.5 60.5q18 16 35.5 31.5t36.5 31.5l290 -500 q-84 -152 -284 -151q-66 0 -114 24.5t-78.5 64.5t-46 90.5t-15.5 103.5zM193 408q0 -37 10 -75t31.5 -67.5t56.5 -49t84 -19.5q131 0 198 82l-223 385l-6 -7q-35 -31 -63.5 -56.5t-48 -53t-29.5 -61t-10 -78.5zM256 1167q0 74 10 119t26.5 68.5t38 31t44.5 7.5 q63 0 90 -51.5t27 -174.5q0 -66 -12.5 -117t-31 -89.5t-38 -66.5t-33.5 -42q-12 20 -32.5 56t-40 79t-34 90t-14.5 90zM330 1167q0 -41 15 -88t38 -90q14 35 24.5 79t10.5 99v25.5t-2 37t-5 39t-10 34.5q-4 10 -8 13t-18 3t-17.5 -2t-7.5 -8q-8 -14 -14 -45t-6 -97zM715 279 l4 8q41 92 51 193.5t10 176.5v99h74v-99q0 -76 -9 -177t-48 -197l174 -279h-92l-68 109z" />
<glyph unicode="'" horiz-adv-x="323" d="M0 1204v309h193v-309h-193zM72 1276h49v164h-49v-164z" />
<glyph unicode="(" horiz-adv-x="421" d="M0 754q0 362 98 577q41 86 78 122t49 44l39 -59q-4 -2 -33.5 -32t-65.5 -105.5t-64.5 -207.5t-28.5 -339t29.5 -337t64.5 -205t65.5 -102.5t32.5 -29.5l2 -2l-39 -62q-12 8 -49 44t-78 122q-100 207 -100 572zM121 754q0 205 28.5 329.5t57.5 190.5t57 96q14 16 27 27 l39 -62l4 2l-22 -25q-23 -26 -49.5 -91.5t-48 -178t-21.5 -288.5q0 -166 20 -275.5t45 -174t47.5 -92.5t26.5 -32l-39 -61l-2 2q-12 8 -27 24q-12 14 -26.5 37t-30.5 58q-29 63 -57.5 187t-28.5 327z" />
<glyph unicode=")" horiz-adv-x="438" d="M0 176l22 26q23 25 48.5 90.5t47 178.5t21.5 289q0 168 -19.5 277.5t-44 174t-47 91t-26.5 30.5l41 66l4 -2q12 -10 27 -27q27 -29 57 -92q29 -66 56.5 -188.5t27.5 -327.5t-27.5 -329t-56.5 -189q-33 -70 -57 -97q-14 -16 -27 -26l-4 -2l-39 61zM70 78l2 2 q2 2 32.5 30.5t66.5 104.5t64.5 208t28.5 339t-28.5 338t-64.5 204.5t-66.5 102.5t-32.5 31l-2 2l36 57q12 -8 49 -43t78 -121q100 -207 101 -573q0 -362 -101 -576q-39 -86 -75.5 -121.5t-48.5 -46.5z" />
<glyph unicode="*" horiz-adv-x="753" d="M0 1210l25 68l270 -100l-197 -228l-57 49l129 148zM43 1323l25 68l172 -64v184h71v-288zM133 920l203 231l203 -231l-54 -48l-149 168l-150 -168zM360 1223v288h72v-184l172 64l25 -66zM377 1178l268 102l27 -70l-170 -63l129 -148l-56 -47z" />
<glyph unicode="+" horiz-adv-x="935" d="M0 662v71h373v-373h-74v302h-299zM0 782v72h299v299h74v-371h-373zM420 360v373h373v-71h-299v-302h-74zM420 782v371h74v-299h299v-72h-373z" />
<glyph unicode="," horiz-adv-x="323" d="M0 8v211h193v-395zM72 45l49 -45v145h-49v-100z" />
<glyph unicode="-" horiz-adv-x="770" d="M0 662v71h618v-71h-618zM0 782v72h618v-72h-618z" />
<glyph unicode="." horiz-adv-x="380" d="M0 2v217h193v-217h-193zM72 74h49v71h-49v-71z" />
<glyph unicode="/" horiz-adv-x="854" d="M0 4l559 1509h82l-565 -1509h-76zM127 4l565 1509h74l-559 -1509h-80z" />
<glyph unicode="0" horiz-adv-x="770" d="M0 430v641q0 193 72 305q84 129 247 129q164 0 248 -129q74 -111 74 -305v-641q0 -195 -74 -305q-84 -129 -248 -129t-247 129q-72 113 -72 305zM72 430q0 -172 61 -264q61 -98 186 -98q123 0 189 98q59 94 59 264v641q0 174 -59 264q-63 96 -189 97q-127 0 -186 -97 q-61 -90 -61 -264v-641zM121 430v641q-1 313 198 313t199 -313v-641q0 -313 -199 -313t-198 313zM193 430q0 -90 15 -139t35.5 -71.5t42 -27t33.5 -4.5t34 4.5t42.5 27t35.5 71.5t15 139v641q0 90 -15 138t-35.5 71t-42 27t-34.5 4q-12 0 -33.5 -4t-42 -27t-35.5 -71 t-15 -138v-641z" />
<glyph unicode="1" horiz-adv-x="563" d="M0 1159l242 346h32h60h22h47h25v-1509h-72v1452h-61l-234 -340zM98 1077l209 305v-1386h-71v1157l-86 -117z" />
<glyph unicode="2" horiz-adv-x="737" d="M0 -4v96q0 92 17.5 170t50 148.5t75.5 141.5t97 148q23 33 42 60.5t37 52.5q29 39 52.5 72t40 66.5t25.5 71.5t9 87q0 18 -4 51t-17 67t-38 58.5t-68 24.5q-16 0 -37.5 -3t-42 -22.5t-33.5 -62.5t-13 -121v-96h-72v96q0 143 51 217q49 66 147 65q94 0 148 -79 q51 -74 51 -195q0 -59 -11 -104t-29.5 -84t-43 -76t-55.5 -76q-20 -27 -38.5 -53.5t-41.5 -54.5q-51 -78 -93 -144.5t-72 -133.5t-46 -136.5t-16 -155.5v-24h247h322v-72h-98h-224h-319zM0 1006v96q0 186 76 289q29 39 87 76.5t156 37.5q70 0 128.5 -27.5t99.5 -77.5 t65.5 -122t26.5 -158h2v-18h-2q-2 -72 -16.5 -128t-37 -104.5t-51 -90.5t-59.5 -83q-18 -23 -36.5 -48t-37.5 -54q-43 -66 -77.5 -119t-59 -101t-40 -92t-23.5 -94h118h224h98v-71h-520q2 74 18.5 136t44 121.5t67.5 122t89 136.5q20 31 38.5 56.5t37.5 51.5q31 41 57.5 79 t47 80t32.5 91t14 111v18q-4 129 -59 211q-68 100 -189 101q-121 0 -186 -84q-61 -84 -61 -246v-96h-72z" />
<glyph unicode="3" horiz-adv-x="737" d="M0 426v96h72v-96q0 -111 22.5 -181.5t58 -109.5t79.5 -53t87 -14q115 0 181.5 94t66.5 254q0 104 -34.5 170.5t-71.5 101.5q-41 39 -90 60q53 27 90 63q37 35 71.5 100.5t34.5 171.5q0 160 -66.5 254.5t-181.5 94.5q-127 0 -186 -97q-61 -90 -61 -262v-96h-72v96 q0 195 72 303q88 129 247 129q162 0 250 -141q72 -113 72 -281q0 -125 -42 -203.5t-87 -121.5q-4 -2 -5 -4t-5 -4l10 -11q45 -41 87 -119.5t42 -203.5q0 -84 -18.5 -156t-53.5 -127q-43 -66 -107.5 -101.5t-142.5 -35.5q-162 0 -247 127q-35 55 -53.5 130t-18.5 173z M121 426v96h72v-96q0 -86 13 -130t27 -67q10 -16 29 -28.5t57 -12.5q45 0 71 30t38 69t15 76.5t3 52.5q0 66 -20 110.5t-48 72.5t-59.5 40t-52.5 12h-33h-59v74h68h24q33 0 77 -16.5t85 -55.5q31 -31 60.5 -88t29.5 -149q0 -133 -51 -217q-52 -82 -148 -82q-98 0 -145 73 q-53 78 -53 236zM121 977v96q0 311 198 311q94 0 148 -84q51 -84 51 -217q0 -80 -24.5 -138t-62.5 -97t-82 -57.5t-83 -18.5h-92v74h92q20 0 52 12t60 40t48 73t20 112q0 8 -3 45t-15 77t-37.5 73t-71.5 33q-12 0 -33.5 -4t-42 -25.5t-35.5 -71t-15 -137.5v-96h-72z" />
<glyph unicode="4" horiz-adv-x="778" d="M0 416v194l471 895h27h106h43v-1509h-72v1438h-36l-480 -869v-76h467v-493h-71v420h-455zM119 537v36l407 742v-778h-407zM221 610h234v449z" />
<glyph unicode="5" horiz-adv-x="761" d="M0 315v33h72v-33q0 -41 17 -84t46 -77q74 -86 184 -86q121 0 189 108q29 47 44 109.5t15 134.5v145q0 168 -59 256q-66 90 -189 90q-121 0 -186 -88l-12 -18v579h520v-73h-448v-350q61 23 126 22q100 0 160 -40t88 -81q74 -104 74 -297v-145q0 -168 -72 -283 q-88 -141 -250 -141q-72 0 -133 28.5t-106 81.5q-39 45 -59.5 100.5t-20.5 108.5zM0 530v5v63v907h193h448v-73h-520h-49v-826v-8h49q0 37 7 83t27.5 86t59.5 67.5t104 27.5q199 0 199 -297v-145q0 -133 -51 -217q-55 -86 -148 -86q-49 0 -85.5 19.5t-61.5 48t-38 64.5 t-13 66v33h72v-33q0 -12 6 -33.5t21.5 -42t39 -36t59.5 -15.5q37 0 62 24t39 59.5t20 75.5t6 73v145q0 82 -12 125t-26 62q-10 14 -29 26.5t-60 12.5t-59 -13.5t-29 -25.5q-39 -51 -38 -154v-63v-5h-193z" />
<glyph unicode="6" horiz-adv-x="753" d="M0 383v195v4v407q0 225 68 354q41 78 105.5 120t145.5 42q158 0 246 -116q76 -100 76 -265v-63h-74v63q0 141 -61 222q-66 86 -187 86q-125 0 -188 -123q-59 -115 -59 -320v-407v-4v-195q0 -147 65.5 -231t181.5 -84q119 0 189 110q29 47 44 111.5t15 138.5v150 q0 172 -59 262q-66 90 -189 90q-131 0 -198 -127v186q0 55 7 124t27.5 129.5t59.5 101t104 40.5q98 0 148 -67q51 -66 51 -193v-63h-72v63q0 100 -36 148q-10 14 -30 26.5t-61 12.5q-43 0 -67.5 -37t-37.5 -88t-17 -105.5t-4 -91.5v-14q61 29 126 29q162 0 248 -123 q74 -111 74 -303v-150q0 -98 -23.5 -177t-65.5 -136.5t-101.5 -88t-131.5 -30.5q-156 0 -243 119q-76 100 -76 268zM121 383v197q0 135 53 217q51 86 145 86q199 0 199 -305v-150q0 -137 -51 -223q-56 -88 -148 -88q-96 0 -147 69q-51 70 -51 197zM193 383q0 -102 38 -154 q10 -14 29 -27.5t59 -13.5q37 0 62 25t39 61.5t20 77.5t6 76v150q0 86 -14 133t-33.5 68.5t-42.5 25.5t-37 4q-45 0 -69.5 -32t-36.5 -71.5t-16 -76.5t-4 -49v-197z" />
<glyph unicode="7" horiz-adv-x="878" d="M0 1311v73h555h133l-579 -1388h-84l555 1315h-580zM0 1432v73h793v-184v-10h-5l-552 -1315h-74l573 1376v60h-735z" />
<glyph unicode="8" horiz-adv-x="794" d="M0 420q0 203 78 307q4 6 9 12t9 11l-18 24q-78 102 -78 305t78 307q88 119 264 119q174 0 264 -119q78 -109 78 -307q0 -199 -78 -305l-18 -24q6 -6 18 -23q78 -109 78 -307q0 -199 -78 -305q-88 -119 -264 -119q-178 0 -264 119q-78 102 -78 305zM72 420 q0 -180 65.5 -266t204.5 -86q137 0 202.5 86t65.5 266t-63 264q-33 45 -80 66q143 66 143 329q0 182 -65.5 267.5t-202.5 85.5q-139 0 -204.5 -85t-65.5 -268q0 -262 143 -329q-45 -20 -80 -66q-63 -84 -63 -264zM121 420q0 162 52 234.5t169 72.5t169 -72.5t52 -234.5 q0 -160 -52 -231.5t-169 -71.5t-169 71.5t-52 231.5zM121 1079q0 160 52 232.5t169 72.5t169 -72.5t52 -232.5t-52 -232.5t-169 -72.5t-169 73t-52 232zM193 420q0 -86 14 -133t35.5 -68.5t48 -26t51.5 -4.5t50.5 4.5t47 26t35.5 68.5t14 133t-12 130t-26 62 q-10 16 -33 28.5t-76 12.5t-75.5 -12t-33.5 -29q-14 -18 -27 -62t-13 -130zM193 1079q0 -86 14 -133t35.5 -68.5t48 -25.5t51.5 -4t50.5 4t47 25.5t35.5 68.5t14 133t-14 133.5t-35.5 69t-47 25.5t-50.5 4t-51.5 -4t-48 -25.5t-35.5 -69t-14 -133.5z" />
<glyph unicode="9" horiz-adv-x="753" d="M0 393v66h72v-66q0 -156 64.5 -240.5t182.5 -84.5q127 0 189 120q59 113 59 322v412v2v198q0 147 -64.5 228.5t-183.5 81.5q-113 0 -180 -96.5t-67 -260.5v-151q0 -176 61 -262q61 -94 186 -95q66 0 117 34t82 95v-186q0 -68 -8 -137.5t-29.5 -127t-60.5 -93t-101 -35.5 q-96 0 -147 69q-51 74 -51 207v66h72v-66q0 -78 15 -119t36.5 -60t42 -22.5t32.5 -3.5q41 0 67 33t39 82t17 105.5t4 101.5v14q-55 -29 -127 -28q-162 0 -245 125q-74 106 -74 303v151q0 174 72 287q43 70 106.5 106.5t140.5 36.5q156 0 246 -114q76 -104 76 -269v-198v-2 v-412q0 -115 -17.5 -203t-50.5 -153q-86 -158 -254 -158q-78 0 -140 30.5t-105 90.5q-74 100 -74 276zM121 924v151q0 139 53 223q51 86 145 86q98 0 148 -67q27 -35 39 -84t12 -111v-200q0 -135 -51 -220q-53 -86 -148 -86q-199 0 -198 308zM193 924q0 -88 14 -136.5 t33.5 -70t41 -25.5t37.5 -4q45 0 71 32t38 73t15 78.5t3 50.5v200q0 70 -15 109t-35.5 56.5t-42 20.5t-34.5 3q-47 0 -72.5 -34t-37.5 -75t-14 -80t-2 -47v-151z" />
<glyph unicode=":" horiz-adv-x="299" d="M0 338v285h193v-285h-193zM0 901v285h193v-285h-193zM72 410h49v139h-49v-139zM72 973h49v141h-49v-141z" />
<glyph unicode=";" horiz-adv-x="323" d="M0 426v197h193v-392zM0 901v285h193v-285h-193zM72 449l49 -48v148h-49v-100zM72 973h49v141h-49v-141z" />
<glyph unicode="&#x3c;" />
<glyph unicode="=" d="M0 436v72h618v-72h-618zM0 557v72h618v-72h-618zM0 887v71h618v-71h-618zM0 1008v71h618v-71h-618z" />
<glyph unicode="&#x3e;" />
<glyph unicode="?" horiz-adv-x="745" d="M0 997v99q0 188 74 293q84 125 245 124q78 0 142.5 -35.5t107.5 -105.5q68 -109 70 -260h2v-16h-2q-2 -82 -27.5 -150.5t-59.5 -124t-71 -95.5t-63 -67l-25 -24q-23 -29 -27 -74t-4 -125v-100h-73v100q0 82 6 141.5t43 104.5l29 29q25 25 57.5 60.5t63 83.5t53 108.5 t26.5 132.5v16q-2 66 -17 122t-42 99q-70 106 -189 107q-123 0 -186 -92q-61 -86 -61 -252v-99h-72zM121 997v99q0 297 198 297q92 0 148 -86q51 -80 51 -201q0 -66 -20.5 -122t-49 -101t-60.5 -80t-56 -60l-31 -30q-45 -53 -52 -122t-7 -155v-100h-74v100q0 47 1 90t8 84 t23.5 78t45.5 72l16 16l19 19q20 20 48.5 51t54.5 69.5t43 86t19 102.5q0 33 -7 69.5t-21.5 69.5t-38 54.5t-60.5 21.5q-14 0 -35.5 -3t-42 -24.5t-34.5 -66.5t-14 -129v-99h-72zM168 4v217h72v-145h49v145h71v-217h-192z" />
<glyph unicode="@" horiz-adv-x="1417" d="M-29 797q41 254 207 424q74 78 167 127t198 71q98 20 194.5 14t182.5 -38.5t157.5 -90t122.5 -135.5q35 -55 57.5 -128.5t28.5 -153.5q4 -78 -6 -154t-37 -139q-25 -63 -78 -116.5t-125 -92.5q-70 -35 -138 -46t-124 5q-84 23 -116 96q-29 -6 -55.5 -7t-49.5 -1 q-141 0 -211 80q-74 84 -53 246q18 147 90 225q84 90 225 90q29 0 60.5 -3t66.5 -13l2 22l72 -12q-4 -25 -9 -56.5t-12 -68.5q-6 6 -12 12.5t-14 10.5q-35 23 -80 28.5t-74 5.5q-213 0 -243 -251q-18 -127 36 -189q45 -55 156 -55q53 0 94 7t74 38q-2 -6 -2 -17 q-8 -47 12.5 -77.5t63.5 -40.5q41 -10 96 -1t113 38q59 31 103 74.5t65 95.5q23 57 32 123.5t4 136.5q-10 147 -73 249q-43 68 -106.5 118t-139.5 79t-162 35t-174 -12q-190 -41 -328 -179q-74 -76 -121 -173t-65 -212q-33 -201 30.5 -356.5t217.5 -249.5q82 -51 181 -76.5 t210 -25.5h21.5t23.5 2q121 6 230.5 43t197.5 100q2 2 25.5 19.5t52.5 40.5l43 -62l-78 -55q-111 -80 -244 -121t-272 -41q-117 0 -226.5 28.5t-203.5 86.5q-164 98 -238 266q-80 178 -43 412zM90 778q18 121 68.5 212t116 155.5t142.5 102.5t150 55q80 16 159 11t147.5 -32 t126 -72t98.5 -106q29 -43 45 -101.5t21 -121t-4 -126t-30 -116.5q-16 -43 -49.5 -77t-73.5 -57.5t-83 -35.5t-78 -12q-25 0 -35 4q-49 12 -41 65q2 12 8 47t13.5 83.5t16.5 104.5t18.5 111.5t17.5 103.5t14 83l72 -12l-17 -95q0 -2 -9 -55t-20.5 -124t-22.5 -141.5 t-17 -103.5q14 0 35.5 4.5t50.5 16.5q47 20 84 51t49 66q18 45 25.5 99t3 108.5t-17.5 104.5t-38 87q-35 51 -83 90t-107.5 60.5t-127 25.5t-136.5 -10q-168 -35 -280 -158t-140 -307q-27 -164 21 -287t171 -196q78 -47 173.5 -67.5t193.5 -15.5t192.5 35.5t169.5 86.5 l78 57l43 -57q-35 -27 -53 -41q-12 -8 -25 -19q-84 -61 -188 -95t-214 -40t-216.5 17.5t-192.5 76.5q-139 86 -196.5 228.5t-28.5 328.5zM412 741q14 111 61 161t135 50q86 1 127 -26q16 -12 28.5 -38t2.5 -85q-16 -94 -33.5 -144.5t-42 -74t-56.5 -27.5t-77 -4 q-88 0 -121 39q-37 43 -24 149zM482 669.5q3 -22.5 10 -30.5q12 -12 65 -12q35 0 55.5 1t28.5 9q10 10 23.5 48t29.5 130q4 25 3 35t-3 14q-6 4 -27.5 9.5t-58.5 5.5q-23 0 -42 -4.5t-35.5 -18.5t-29 -43t-18.5 -80q-4 -41 -1 -63.5z" />
<glyph unicode="A" horiz-adv-x="960" d="M20 0l351 1509h16h57h5h57h18l350 -1509h-75l-330 1423h-45l-330 -1423h-74zM143 0l115 494h377l115 -494h-74l-98 420h-263l-96 -420h-76zM268 541l178 764l177 -764h-355zM360 614h172l-86 369z" />
<glyph unicode="B" horiz-adv-x="770" d="M0 0v72h72h24h25h170q154 0 227 88q70 84 70 264q0 178 -70 266q-35 41 -88 66q158 63 158 329q0 180 -72 265.5t-225 85.5h-195h-24h-72v73h291q190 0 282 -114q88 -106 89 -310q0 -205 -89 -311q-8 -12 -16 -20q12 -12 16 -19q88 -106 89 -311q0 -205 -89 -311 q-92 -113 -282 -113h-98h-193zM0 121v72v1196h72v-1268h-72zM121 121v610h170q131 0 190.5 -72.5t59.5 -234.5q0 -158 -60 -234q-56 -69 -186 -69h-4h-170zM121 778v611h170q133 0 190 -72q60 -72 60 -232q0 -162 -59.5 -234.5t-190.5 -72.5h-170zM193 193h98q37 0 69.5 6 t56 28.5t37 69.5t13.5 127q0 82 -14.5 128t-38 69.5t-55 29.5t-68.5 6h-98v-464zM193 852h98q66 0 94.5 14.5t38.5 30.5q43 51 43 188q0 80 -13.5 126t-37 69t-56 29t-69.5 6h-98v-463z" />
<glyph unicode="C" horiz-adv-x="837" d="M0 430v649q0 201 86 310q16 20 40 41.5t57.5 39t76.5 28.5t98 11q111 0 174.5 -39.5t96.5 -80.5q88 -111 88 -310v-96h-74v96q0 176 -70 267q-74 90 -215 90t-215 -90q-72 -94 -71 -267v-649q0 -111 26.5 -181.5t67.5 -109.5t92 -53t100 -14t99.5 14t91.5 53t67.5 109.5 t26.5 181.5v98h74v-98q0 -199 -88 -309q-33 -41 -96.5 -81t-174.5 -40q-55 0 -98 11.5t-76.5 28.5t-57.5 38.5t-40 42.5q-86 106 -86 309zM121 430v649q-1 310 237 310t238 -310v-96h-74v96q0 88 -17.5 136.5t-43 70t-54 25.5t-49.5 4q-23 0 -50 -4t-54 -25.5t-44 -70 t-17 -136.5v-649q0 -133 47 -190q10 -16 36.5 -31.5t81.5 -15.5t81 15t38 32q45 57 45 190v98h74v-98q0 -309 -238 -309t-237 309z" />
<glyph unicode="D" horiz-adv-x="802" d="M0 0v72h72h24h205q156 0 238 94q74 92 73 270v635q0 178 -73 270q-80 94 -238 95h-205h-24h-72v73h301q195 0 293 -123q90 -109 90 -315v-635q0 -207 -90 -315q-98 -121 -293 -121h-301zM0 121v1268h72v-1268h-72zM121 121v1268h180q139 0 199 -78q63 -76 63 -240v-635 q0 -161 -63 -239q-61 -76 -199 -76h-180zM193 193h108q37 0 71 6t59.5 30.5t41.5 73.5t16 133v635q0 84 -16 133t-41.5 74t-59.5 31t-71 6h-108v-1122z" />
<glyph unicode="E" horiz-adv-x="761" d="M0 0v1509h625v-73h-553v-658v-47v-659h553v-72h-625zM121 121v610h504v-74h-432v-464h432v-72h-504zM121 778v611h504v-74h-432v-463h432v-74h-504z" />
<glyph unicode="F" horiz-adv-x="761" d="M0 0v1509h625v-73h-553v-658v-47v-731h-72zM121 0v731h504v-74h-432v-657h-72zM121 778v611h504v-74h-432v-463h432v-74h-504z" />
<glyph unicode="G" horiz-adv-x="845" d="M0 432v651q0 201 88 310q91 118 267 118h3q180 0 273 -118q88 -109 88 -310v-96h-72v96q0 174 -72 265q-72 90 -217 90q-143 0 -215 -90t-71 -265v-651q0 -176 71 -266q74 -92 215 -92q143 0 217 92q72 90 72 266v236h-356v71h428v-307q0 -203 -88 -311 q-33 -41 -97.5 -80t-175.5 -39t-174 39t-96 80q-88 109 -88 311zM121 432v651q0 160 61 234q57 74 176 74t179 -74q61 -74 61 -234v-96h-74v96q0 82 -14 128t-37.5 70t-53.5 30t-61 6t-60.5 -6t-53 -30t-37.5 -70t-14 -128v-651q0 -90 17 -138t44 -69.5t54.5 -25.5t49.5 -4 q23 0 51.5 4t54 25.5t43 69.5t17.5 138v115h-233v71h307v-186q0 -162 -61 -235q-55 -74 -179 -74q-121 0 -176 74q-61 74 -61 235z" />
<glyph unicode="H" horiz-adv-x="837" d="M0 2v1509h72v-731v-49v-729h-72zM121 2v729h436v-729h-74v657h-290v-657h-72zM121 780v731h72v-659h290v659h74v-731h-436zM604 2v729v49v731h74v-1509h-74z" />
<glyph unicode="I" horiz-adv-x="413" d="M61 2v1509h72v-1509h-72zM182 2v1509h72v-1509h-72z" />
<glyph unicode="J" horiz-adv-x="829" d="M0 403v97h72v-97q0 -164 67 -245q68 -84 199 -84q133 0 201 84q66 84 65 245v1108h72v-1108q0 -188 -82 -290q-29 -39 -90.5 -75t-165.5 -36q-102 0 -163.5 36t-92.5 75q-82 102 -82 290zM121 403v97h72v-97q0 -78 15 -120.5t37.5 -62t47 -22.5t45.5 -3q51 0 73.5 13 t32.5 25q39 51 39 170v1108h72v-1108q0 -145 -55 -215q-50 -65 -159 -65h-3q-109 0 -162 65q-55 70 -55 215z" />
<glyph unicode="K" horiz-adv-x="935" d="M0 549l2 4v958h72v-1509h-72v547h-2zM123 2v516l158 244l419 -760h-82l-344 619l-79 -125v-494h-72zM123 608v903h72v-659l428 659h84zM309 809l455 702h90l-459 -706l445 -803h-82z" />
<glyph unicode="L" horiz-adv-x="729" d="M0 2v1509h72v-1437h585v-72h-657zM121 123v1388h72v-1316h464v-72h-536z" />
<glyph unicode="M" horiz-adv-x="1101" d="M0 2v1509h23h49h22h45h31l305 -1062l303 1062h17h59h23h32h39v-1509h-71v1436h-43l-359 -1252l-360 1252h-43v-1436h-72zM121 2v1241l354 -1233l352 1233v-1241h-71v723l-209 -723h-146l-208 723v-723h-72z" />
<glyph unicode="N" horiz-adv-x="870" d="M0 4v1509h20h52h12h53h25l368 -913v913h74v-1288l-489 1215h-43v-1436h-72zM121 4v1288l489 -1214h41v1435h74v-1509h-23h-51h-10h-55h-25l-368 914v-914h-72z" />
<glyph unicode="O" horiz-adv-x="829" d="M0 434v651q0 199 86 310q33 41 97.5 79.5t174.5 38.5q111 0 175.5 -38.5t97.5 -79.5q86 -111 86 -310v-651q0 -203 -86 -309q-16 -20 -40 -42t-57.5 -39t-76.5 -28.5t-99 -11.5q-111 0 -175 40t-97 81q-86 106 -86 309zM72 434q0 -174 71 -264q76 -94 215 -94t215 94 q72 90 72 264v651q0 174 -72 265q-74 92 -215 92t-215 -92q-72 -90 -71 -265v-651zM121 434v651q0 160 61 234q55 74 176 74t177 -74q61 -74 61 -234v-651q0 -309 -238 -309t-237 309zM193 434q0 -90 17 -138t44 -69.5t54.5 -25.5t49.5 -4q20 0 49 4t55.5 25.5t44 69.5 t17.5 138v651q0 88 -17.5 136.5t-44 70t-55 25.5t-49.5 4q-23 0 -50 -4t-54 -25.5t-44 -69.5t-17 -137v-651z" />
<glyph unicode="P" horiz-adv-x="786" d="M0 4v1389h72v-1389h-72zM0 1442v71h313h3q192 0 290 -112q92 -104 92 -311t-92 -314q-97 -112 -290 -112h-3h-120v-660h-72v731h192q160 0 236 86t76 269q0 180 -76 266t-236 86h-196h-45h-72zM121 784v609h192q139 0 201 -70q64 -71 64 -233t-62.5 -234t-202.5 -72h-192 zM193 856h120q80 0 109 18.5t37 28.5q45 51 45 187q0 74 -12.5 118.5t-36 69.5t-59.5 34t-83 9h-120v-465z" />
<glyph unicode="Q" horiz-adv-x="829" d="M0 438v647q0 137 37 221.5t91 129.5t116.5 59t113.5 14q49 0 111.5 -14t118 -59t92.5 -129t37 -222v-647q0 -172 -66 -280l207 -250h-88l-207 250q4 2 5 4t5 6q70 98 70 270v647q0 350 -285 351q-287 0 -286 -351v-647q0 -174 71 -270q74 -96 215 -96q100 0 170 51 l179 -215h-101l-98 121q-63 -29 -150 -29q-111 0 -175 41t-97 84q-86 111 -86 313zM121 438v647q0 156 57.5 230t179.5 74q123 0 179.5 -74t56.5 -230v-647q0 -166 -64 -243l-147 178h86l43 -54q4 23 7 56t3 63v647q0 80 -14 126t-38 69t-52.5 29t-59.5 6t-60.5 -6t-53 -29 t-37.5 -69t-14 -126v-647q0 -137 47 -196q12 -16 37.5 -32.5t80.5 -16.5h15l-146 180h92l179 -211q-53 -41 -140 -41q-238 0 -237 317z" />
<glyph unicode="R" horiz-adv-x="854" d="M0 0v1389h72v-1389h-72zM0 1436v73h313q195 0 293 -114q90 -104 90 -316q0 -209 -90 -317q-4 -4 -9 -10.5t-11 -10.5q55 -53 84.5 -126.5t29.5 -168.5v-446h-73v446q0 152 -88 240q-37 33 -86 55q172 66 172 338q0 182 -74 269q-76 88 -238 88h-217h-24h-72zM121 0v719 h168h24q127 0 197 -70.5t70 -202.5v-446h-74v446q0 199 -193 199h-96h-24v-645h-72zM121 768v621h192q139 0 201 -72q61 -74 61 -238q0 -166 -61 -238.5t-201 -72.5h-24h-168zM193 840h24h96q78 0 108 18.5t38 28.5q45 57 45 192q0 76 -12.5 122t-36 71.5t-59.5 34t-83 8.5 h-120v-475z" />
<glyph unicode="S" horiz-adv-x="813" d="M0 428v96h72v-96q0 -176 71 -266q74 -90 217 -90q68 0 123.5 25.5t91.5 76.5q35 45 53.5 107.5t18.5 136.5q0 88 -30.5 148.5t-72.5 99.5t-86 60.5t-71 31.5l-33 14q-29 12 -68.5 32.5t-76.5 56.5t-62.5 88t-25.5 128q0 53 12 108.5t41 100.5t75 74t111 29q119 0 179 -74 q61 -78 61 -238v-96h-74v96q0 88 -17 137.5t-44 71t-55.5 25.5t-49.5 4q-59 0 -91.5 -29t-50 -68.5t-21.5 -79.5t-4 -61q0 -53 16 -91t43 -65.5t60.5 -47t70.5 -33.5l33 -15q29 -12 79 -35.5t99 -70.5q127 -117 127 -301q0 -174 -86 -289q-100 -129 -275 -129 q-180 0 -272 117q-88 109 -88 311zM0 1077q0 96 25.5 176t73.5 136.5t115 88t146 31.5q111 0 175.5 -38.5t97.5 -79.5q88 -113 88 -314v-96h-74v96q0 180 -72 266q-72 92 -215 93q-139 0 -217 -107q-71 -95 -71 -248q0 -92 29.5 -153.5t71.5 -101.5t87 -62.5t74 -34.5 l35 -16q27 -10 65.5 -28.5t75.5 -52.5t63.5 -86t26.5 -128q0 -141 -63.5 -219t-176.5 -78q-121 0 -178 72q-61 76 -61 235v96h72v-96q0 -133 47 -190q10 -14 36.5 -29.5t83.5 -15.5q55 0 88 23.5t50.5 57t22.5 73.5t5 71q0 53 -16 90t-43 62.5t-59.5 43t-65.5 31.5l-37 17 q-33 14 -83 39.5t-99 72.5q-123 119 -123 303z" />
<glyph unicode="T" horiz-adv-x="944" d="M-20 1315v74h403v-1389h-74v1315h-329zM-20 1436v73h854v-73h-404h-47h-403zM430 0v72v1317h404v-74h-330v-1315h-74z" />
<glyph unicode="U" horiz-adv-x="829" d="M0 401v1108h72v-1108q0 -162 67 -243q68 -86 199 -86q133 0 199 86q68 82 67 243v1108h72v-1108q0 -188 -82 -288q-31 -41 -92.5 -77t-163.5 -36t-163.5 36t-92.5 77q-82 100 -82 288zM121 401v1108h72v-1108q0 -78 15 -120.5t37.5 -62t47 -22.5t45.5 -3q20 0 45 3 t47.5 22.5t37.5 62.5t15 120v1108h72v-1108q0 -145 -55 -215q-50 -65 -159 -65h-3q-109 0 -162 65q-55 70 -55 215z" />
<glyph unicode="V" horiz-adv-x="944" d="M0 1509h72l358 -1429h41l358 1429h76l-379 -1509h-18h-55h-2h-58h-18zM123 1509h76l252 -1013l256 1013h71l-327 -1312z" />
<glyph unicode="W" horiz-adv-x="1474" d="M0 1509h76l315 -1429h41l270 1220l269 -1220h43l313 1429h76l-334 -1509h-16h-58h-6h-53h-23l-211 963l-213 -963h-20h-53h-8h-56h-18zM125 1509h74l213 -964l213 964h24h49h7h61h14l211 -964l213 964h74l-287 -1300l-268 1221h-43l-268 -1221z" />
<glyph unicode="X" horiz-adv-x="1019" d="M0 0l356 754l-350 755h80l354 -753l-356 -756h-84zM137 0l330 698l330 -698h-84l-248 528l-250 -528h-78zM139 1509h82l244 -528l250 528h82l-330 -696zM494 756l356 753h80l-359 -755l355 -754h-76z" />
<glyph unicode="Y" horiz-adv-x="1060" d="M-82 1509h82l418 -761v-748h-70v729zM55 1509h84l305 -555l308 555h77l-387 -704zM465 0v748l420 761h88l-432 -780v-729h-76z" />
<glyph unicode="Z" horiz-adv-x="935" d="M0 1315v74h659v-39h3l-558 -1188v-90h707v-72h-778v47v121v20l528 1127h-561zM0 1436v73h778v-186l-528 -1130h561v-72h-653v41l551 1173v101h-709z" />
<glyph unicode="[" />
<glyph unicode="\" horiz-adv-x="786" d="M0 1511h74l565 -1509h-80zM125 1511h82l559 -1509h-76z" />
<glyph unicode="]" />
<glyph unicode="^" />
<glyph unicode="_" horiz-adv-x="952" d="M0 0h956v-74h-956v74zM0 -121h956v-74h-956v74z" />
<glyph unicode="`" horiz-adv-x="323" d="M0 1204v309h193v-309h-193zM72 1276h49v164h-49v-164z" />
<glyph unicode="a" horiz-adv-x="960" d="M20 0l351 1509h16h57h5h57h18l350 -1509h-75l-330 1423h-45l-330 -1423h-74zM143 0l115 494h377l115 -494h-74l-98 420h-263l-96 -420h-76zM268 541l178 764l177 -764h-355zM360 614h172l-86 369z" />
<glyph unicode="b" horiz-adv-x="770" d="M0 0v72h72h24h25h170q154 0 227 88q70 84 70 264q0 178 -70 266q-35 41 -88 66q158 63 158 329q0 180 -72 265.5t-225 85.5h-195h-24h-72v73h291q190 0 282 -114q88 -106 89 -310q0 -205 -89 -311q-8 -12 -16 -20q12 -12 16 -19q88 -106 89 -311q0 -205 -89 -311 q-92 -113 -282 -113h-98h-193zM0 121v72v1196h72v-1268h-72zM121 121v610h170q131 0 190.5 -72.5t59.5 -234.5q0 -158 -60 -234q-56 -69 -186 -69h-4h-170zM121 778v611h170q133 0 190 -72q60 -72 60 -232q0 -162 -59.5 -234.5t-190.5 -72.5h-170zM193 193h98q37 0 69.5 6 t56 28.5t37 69.5t13.5 127q0 82 -14.5 128t-38 69.5t-55 29.5t-68.5 6h-98v-464zM193 852h98q66 0 94.5 14.5t38.5 30.5q43 51 43 188q0 80 -13.5 126t-37 69t-56 29t-69.5 6h-98v-463z" />
<glyph unicode="c" horiz-adv-x="837" d="M0 430v649q0 201 86 310q16 20 40 41.5t57.5 39t76.5 28.5t98 11q111 0 174.5 -39.5t96.5 -80.5q88 -111 88 -310v-96h-74v96q0 176 -70 267q-74 90 -215 90t-215 -90q-72 -94 -71 -267v-649q0 -111 26.5 -181.5t67.5 -109.5t92 -53t100 -14t99.5 14t91.5 53t67.5 109.5 t26.5 181.5v98h74v-98q0 -199 -88 -309q-33 -41 -96.5 -81t-174.5 -40q-55 0 -98 11.5t-76.5 28.5t-57.5 38.5t-40 42.5q-86 106 -86 309zM121 430v649q-1 310 237 310t238 -310v-96h-74v96q0 88 -17.5 136.5t-43 70t-54 25.5t-49.5 4q-23 0 -50 -4t-54 -25.5t-44 -70 t-17 -136.5v-649q0 -133 47 -190q10 -16 36.5 -31.5t81.5 -15.5t81 15t38 32q45 57 45 190v98h74v-98q0 -309 -238 -309t-237 309z" />
<glyph unicode="d" horiz-adv-x="802" d="M0 0v72h72h24h205q156 0 238 94q74 92 73 270v635q0 178 -73 270q-80 94 -238 95h-205h-24h-72v73h301q195 0 293 -123q90 -109 90 -315v-635q0 -207 -90 -315q-98 -121 -293 -121h-301zM0 121v1268h72v-1268h-72zM121 121v1268h180q139 0 199 -78q63 -76 63 -240v-635 q0 -161 -63 -239q-61 -76 -199 -76h-180zM193 193h108q37 0 71 6t59.5 30.5t41.5 73.5t16 133v635q0 84 -16 133t-41.5 74t-59.5 31t-71 6h-108v-1122z" />
<glyph unicode="e" horiz-adv-x="761" d="M0 0v1509h625v-73h-553v-658v-47v-659h553v-72h-625zM121 121v610h504v-74h-432v-464h432v-72h-504zM121 778v611h504v-74h-432v-463h432v-74h-504z" />
<glyph unicode="f" horiz-adv-x="761" d="M0 0v1509h625v-73h-553v-658v-47v-731h-72zM121 0v731h504v-74h-432v-657h-72zM121 778v611h504v-74h-432v-463h432v-74h-504z" />
<glyph unicode="g" horiz-adv-x="845" d="M0 432v651q0 201 88 310q91 118 267 118h3q180 0 273 -118q88 -109 88 -310v-96h-72v96q0 174 -72 265q-72 90 -217 90q-143 0 -215 -90t-71 -265v-651q0 -176 71 -266q74 -92 215 -92q143 0 217 92q72 90 72 266v236h-356v71h428v-307q0 -203 -88 -311 q-33 -41 -97.5 -80t-175.5 -39t-174 39t-96 80q-88 109 -88 311zM121 432v651q0 160 61 234q57 74 176 74t179 -74q61 -74 61 -234v-96h-74v96q0 82 -14 128t-37.5 70t-53.5 30t-61 6t-60.5 -6t-53 -30t-37.5 -70t-14 -128v-651q0 -90 17 -138t44 -69.5t54.5 -25.5t49.5 -4 q23 0 51.5 4t54 25.5t43 69.5t17.5 138v115h-233v71h307v-186q0 -162 -61 -235q-55 -74 -179 -74q-121 0 -176 74q-61 74 -61 235z" />
<glyph unicode="h" horiz-adv-x="837" d="M0 2v1509h72v-731v-49v-729h-72zM121 2v729h436v-729h-74v657h-290v-657h-72zM121 780v731h72v-659h290v659h74v-731h-436zM604 2v729v49v731h74v-1509h-74z" />
<glyph unicode="i" horiz-adv-x="413" d="M61 2v1509h72v-1509h-72zM182 2v1509h72v-1509h-72z" />
<glyph unicode="j" horiz-adv-x="829" d="M0 403v97h72v-97q0 -164 67 -245q68 -84 199 -84q133 0 201 84q66 84 65 245v1108h72v-1108q0 -188 -82 -290q-29 -39 -90.5 -75t-165.5 -36q-102 0 -163.5 36t-92.5 75q-82 102 -82 290zM121 403v97h72v-97q0 -78 15 -120.5t37.5 -62t47 -22.5t45.5 -3q51 0 73.5 13 t32.5 25q39 51 39 170v1108h72v-1108q0 -145 -55 -215q-50 -65 -159 -65h-3q-109 0 -162 65q-55 70 -55 215z" />
<glyph unicode="k" horiz-adv-x="935" d="M0 549l2 4v958h72v-1509h-72v547h-2zM123 2v516l158 244l419 -760h-82l-344 619l-79 -125v-494h-72zM123 608v903h72v-659l428 659h84zM309 809l455 702h90l-459 -706l445 -803h-82z" />
<glyph unicode="l" horiz-adv-x="729" d="M0 2v1509h72v-1437h585v-72h-657zM121 123v1388h72v-1316h464v-72h-536z" />
<glyph unicode="m" horiz-adv-x="1101" d="M0 2v1509h23h49h22h45h31l305 -1062l303 1062h17h59h23h32h39v-1509h-71v1436h-43l-359 -1252l-360 1252h-43v-1436h-72zM121 2v1241l354 -1233l352 1233v-1241h-71v723l-209 -723h-146l-208 723v-723h-72z" />
<glyph unicode="n" horiz-adv-x="870" d="M0 4v1509h20h52h12h53h25l368 -913v913h74v-1288l-489 1215h-43v-1436h-72zM121 4v1288l489 -1214h41v1435h74v-1509h-23h-51h-10h-55h-25l-368 914v-914h-72z" />
<glyph unicode="o" horiz-adv-x="829" d="M0 434v651q0 199 86 310q33 41 97.5 79.5t174.5 38.5q111 0 175.5 -38.5t97.5 -79.5q86 -111 86 -310v-651q0 -203 -86 -309q-16 -20 -40 -42t-57.5 -39t-76.5 -28.5t-99 -11.5q-111 0 -175 40t-97 81q-86 106 -86 309zM72 434q0 -174 71 -264q76 -94 215 -94t215 94 q72 90 72 264v651q0 174 -72 265q-74 92 -215 92t-215 -92q-72 -90 -71 -265v-651zM121 434v651q0 160 61 234q55 74 176 74t177 -74q61 -74 61 -234v-651q0 -309 -238 -309t-237 309zM193 434q0 -90 17 -138t44 -69.5t54.5 -25.5t49.5 -4q20 0 49 4t55.5 25.5t44 69.5 t17.5 138v651q0 88 -17.5 136.5t-44 70t-55 25.5t-49.5 4q-23 0 -50 -4t-54 -25.5t-44 -69.5t-17 -137v-651z" />
<glyph unicode="p" horiz-adv-x="786" d="M0 4v1389h72v-1389h-72zM0 1442v71h313h3q193 0 290 -112q92 -104 92 -311t-92 -314q-97 -112 -290 -112h-3h-120v-660h-72v731h192q160 0 236 86t76 269q0 180 -76 266t-236 86h-196h-45h-72zM121 784v609h192q139 0 201 -70q64 -71 64 -233t-62.5 -234t-202.5 -72h-192 zM193 856h120q80 0 109 18.5t37 28.5q45 51 45 187q0 74 -12.5 118.5t-36 69.5t-59.5 34t-83 9h-120v-465z" />
<glyph unicode="q" horiz-adv-x="829" d="M0 438v647q0 137 37 221.5t91 129.5t116.5 59t113.5 14q49 0 111.5 -14t118 -59t92.5 -129t37 -222v-647q0 -172 -66 -280l207 -250h-88l-207 250q4 2 5 4t5 6q70 98 70 270v647q0 350 -285 351q-287 0 -286 -351v-647q0 -174 71 -270q74 -96 215 -96q100 0 170 51 l179 -215h-101l-98 121q-63 -29 -150 -29q-111 0 -175 41t-97 84q-86 111 -86 313zM121 438v647q0 156 57.5 230t179.5 74q123 0 179.5 -74t56.5 -230v-647q0 -166 -64 -243l-147 178h86l43 -54q4 23 7 56t3 63v647q0 80 -14 126t-38 69t-52.5 29t-59.5 6t-60.5 -6t-53 -29 t-37.5 -69t-14 -126v-647q0 -137 47 -196q12 -16 37.5 -32.5t80.5 -16.5h15l-146 180h92l179 -211q-53 -41 -140 -41q-238 0 -237 317z" />
<glyph unicode="r" horiz-adv-x="854" d="M0 0v1389h72v-1389h-72zM0 1436v73h313q195 0 293 -114q90 -104 90 -316q0 -209 -90 -317q-4 -4 -9 -10.5t-11 -10.5q55 -53 84.5 -126.5t29.5 -168.5v-446h-73v446q0 152 -88 240q-37 33 -86 55q172 66 172 338q0 182 -74 269q-76 88 -238 88h-217h-24h-72zM121 0v719 h168h24q127 0 197 -70.5t70 -202.5v-446h-74v446q0 199 -193 199h-96h-24v-645h-72zM121 768v621h192q139 0 201 -72q61 -74 61 -238q0 -166 -61 -238.5t-201 -72.5h-24h-168zM193 840h24h96q78 0 108 18.5t38 28.5q45 57 45 192q0 76 -12.5 122t-36 71.5t-59.5 34t-83 8.5 h-120v-475z" />
<glyph unicode="s" horiz-adv-x="813" d="M0 428v96h72v-96q0 -176 71 -266q74 -90 217 -90q68 0 123.5 25.5t91.5 76.5q35 45 53.5 107.5t18.5 136.5q0 88 -30.5 148.5t-72.5 99.5t-86 60.5t-71 31.5l-33 14q-29 12 -68.5 32.5t-76.5 56.5t-62.5 88t-25.5 128q0 53 12 108.5t41 100.5t75 74t111 29q119 0 179 -74 q61 -78 61 -238v-96h-74v96q0 88 -17 137.5t-44 71t-55.5 25.5t-49.5 4q-59 0 -91.5 -29t-50 -68.5t-21.5 -79.5t-4 -61q0 -53 16 -91t43 -65.5t60.5 -47t70.5 -33.5l33 -15q29 -12 79 -35.5t99 -70.5q127 -117 127 -301q0 -174 -86 -289q-100 -129 -275 -129 q-180 0 -272 117q-88 109 -88 311zM0 1077q0 96 25.5 176t73.5 136.5t115 88t146 31.5q111 0 175.5 -38.5t97.5 -79.5q88 -113 88 -314v-96h-74v96q0 180 -72 266q-72 92 -215 93q-139 0 -217 -107q-71 -95 -71 -248q0 -92 29.5 -153.5t71.5 -101.5t87 -62.5t74 -34.5 l35 -16q27 -10 65.5 -28.5t75.5 -52.5t63.5 -86t26.5 -128q0 -141 -63.5 -219t-176.5 -78q-121 0 -178 72q-61 76 -61 235v96h72v-96q0 -133 47 -190q10 -14 36.5 -29.5t83.5 -15.5q55 0 88 23.5t50.5 57t22.5 73.5t5 71q0 53 -16 90t-43 62.5t-59.5 43t-65.5 31.5l-37 17 q-33 14 -83 39.5t-99 72.5q-123 119 -123 303z" />
<glyph unicode="t" horiz-adv-x="944" d="M-20 1315v74h403v-1389h-74v1315h-329zM-20 1436v73h854v-73h-404h-47h-403zM430 0v72v1317h404v-74h-330v-1315h-74z" />
<glyph unicode="u" horiz-adv-x="829" d="M0 401v1108h72v-1108q0 -162 67 -243q68 -86 199 -86q133 0 199 86q68 82 67 243v1108h72v-1108q0 -188 -82 -288q-31 -41 -92.5 -77t-163.5 -36t-163.5 36t-92.5 77q-82 100 -82 288zM121 401v1108h72v-1108q0 -78 15 -120.5t37.5 -62t47 -22.5t45.5 -3q20 0 45 3 t47.5 22.5t37.5 62.5t15 120v1108h72v-1108q0 -145 -55 -215q-50 -65 -159 -65h-3q-109 0 -162 65q-55 70 -55 215z" />
<glyph unicode="v" horiz-adv-x="944" d="M0 1509h72l358 -1429h41l358 1429h76l-379 -1509h-18h-55h-2h-58h-18zM123 1509h76l252 -1013l256 1013h71l-327 -1312z" />
<glyph unicode="w" horiz-adv-x="1474" d="M0 1509h76l315 -1429h41l270 1220l269 -1220h43l313 1429h76l-334 -1509h-16h-58h-6h-53h-23l-211 963l-213 -963h-20h-53h-8h-56h-18zM125 1509h74l213 -964l213 964h24h49h7h61h14l211 -964l213 964h74l-287 -1300l-268 1221h-43l-268 -1221z" />
<glyph unicode="x" horiz-adv-x="1019" d="M0 0l356 754l-350 755h80l354 -753l-356 -756h-84zM137 0l330 698l330 -698h-84l-248 528l-250 -528h-78zM139 1509h82l244 -528l250 528h82l-330 -696zM494 756l356 753h80l-359 -755l355 -754h-76z" />
<glyph unicode="y" horiz-adv-x="1060" d="M-82 1509h82l418 -761v-748h-70v729zM55 1509h84l305 -555l308 555h77l-387 -704zM465 0v748l420 761h88l-432 -780v-729h-76z" />
<glyph unicode="z" horiz-adv-x="935" d="M0 1315v74h659v-39h3l-558 -1188v-90h707v-72h-778v47v121v20l528 1127h-561zM0 1436v73h778v-186l-528 -1130h561v-72h-653v41l551 1173v101h-709z" />
<glyph unicode="{" />
<glyph unicode="|" horiz-adv-x="413" d="M61 2v1509h72v-1509h-72zM182 2v1509h72v-1509h-72z" />
<glyph unicode="}" />
<glyph unicode="~" />
<glyph unicode="&#xa9;" />
<glyph unicode="&#xad;" horiz-adv-x="770" d="M0 662v71h618v-71h-618zM0 782v72h618v-72h-618z" />
<glyph unicode="&#xae;" />
<glyph unicode="&#x2c6;" />
<glyph unicode="&#x2dc;" />
<glyph unicode="&#x2000;" horiz-adv-x="756" />
<glyph unicode="&#x2001;" horiz-adv-x="1513" />
<glyph unicode="&#x2002;" horiz-adv-x="756" />
<glyph unicode="&#x2003;" horiz-adv-x="1513" />
<glyph unicode="&#x2004;" horiz-adv-x="504" />
<glyph unicode="&#x2005;" horiz-adv-x="378" />
<glyph unicode="&#x2006;" horiz-adv-x="252" />
<glyph unicode="&#x2007;" horiz-adv-x="252" />
<glyph unicode="&#x2008;" horiz-adv-x="189" />
<glyph unicode="&#x2009;" horiz-adv-x="302" />
<glyph unicode="&#x200a;" horiz-adv-x="84" />
<glyph unicode="&#x2010;" horiz-adv-x="770" d="M0 662v71h618v-71h-618zM0 782v72h618v-72h-618z" />
<glyph unicode="&#x2011;" horiz-adv-x="770" d="M0 662v71h618v-71h-618zM0 782v72h618v-72h-618z" />
<glyph unicode="&#x2012;" horiz-adv-x="770" d="M0 662v71h618v-71h-618zM0 782v72h618v-72h-618z" />
<glyph unicode="&#x2013;" horiz-adv-x="770" d="M0 662v71h618v-71h-618zM0 782v72h618v-72h-618z" />
<glyph unicode="&#x2014;" horiz-adv-x="770" d="M0 662v71h618v-71h-618zM0 782v72h618v-72h-618z" />
<glyph unicode="&#x2018;" horiz-adv-x="323" d="M0 1204v309h193v-309h-193zM72 1276h49v164h-49v-164z" />
<glyph unicode="&#x2019;" horiz-adv-x="323" d="M0 1204v309h193v-309h-193zM72 1276h49v164h-49v-164z" />
<glyph unicode="&#x201c;" horiz-adv-x="579" d="M0 1204v309h193v-309h-193zM72 1276h49v164h-49v-164zM285 1204v309h192v-309h-192zM356 1276h50v164h-50v-164z" />
<glyph unicode="&#x201d;" horiz-adv-x="579" d="M0 1204v309h193v-309h-193zM72 1276h49v164h-49v-164zM285 1204v309h192v-309h-192zM356 1276h50v164h-50v-164z" />
<glyph unicode="&#x2022;" />
<glyph unicode="&#x202f;" horiz-adv-x="302" />
<glyph unicode="&#x205f;" horiz-adv-x="378" />
<glyph unicode="&#x2122;" horiz-adv-x="2045" />
<glyph unicode="&#xe000;" horiz-adv-x="1505" d="M0 0v1505h1505v-1505h-1505z" />
</font>
</defs>
</svg>
